Login
Username:
Password:
[Signup]
[Recover Account]


Browse Torrents

Poll


You must be logged in to view polls



Latest Torrents
Windy.City.Rehab.S...
- [Size: 354.87 MB]

Bobs.Burgers.S09E1...
- [Size: 347.84 MB]

Spider-Man.Into th...
- [Size: 2.26 GB]

The.Simpsons.S30E1...
- [Size: 544.03 MB]

The.Simpsons.S30E1...
- [Size: 301.38 MB]


Torrent Details For "Padmaavat (2018) 720p BDRip x264 ESubs- [Multi Auds]-[Hindi + Telugu + Tamil] - 1.1GB [MovCr]"

Padmaavat (2018) 720p BDRip x264 ESubs- [Multi Auds]-[Hindi + Telugu + Tamil] - 1.1GB [MovCr]

Download this torrent | Magnet Download
Health:
Seeds: 0
Leechers: 1
Completed: 176 
Last Checked: 15-09-2018 09:19:53
External Torrent
Update Stats



Images Host

Poster


iMDB
Imdb Picture Title: Padmaavat
Year: 2018
Runtime: 164 minutes
Language: Hindi
Country: India
All Genres: Action, Drama, History, Romance
Plot Outline: Set in medieval Rajasthan, Queen Padmavati is married to a noble king and they live in a prosperous fortress with their subjects until an ambitious Sultan hears of Padmavati's beauty and forms an obsessive love for the Queen of Mewar.
Director: Sanjay Leela Bhansali
Writing By: Prakash Kapadia,Sanjay Leela Bhansali,Prakash Kapadia,
Produced By: Ajit Andhare,Sanjay Leela Bhansali,Chetan Deolekar,Arvinder Gill,Raghav Khanna,Pratik Rawal,Shobha Sant,Sudhanshu Vats,
Music: Sanchit Balhara Sanjay Leela Bhansali
Cast:
Deepika Padukone as Padmavati
Shahid Kapoor as Maharawal Ratan Singh
Ranveer Singh as Sultan Alauddin Khilji
Anupriya Goenka as Nagmati
Aditi Rao Hydari as Mehrunissa
Manjit Singh as Farouk Affandi
Raza Murad as Jalaluddin Khilji
Jim Sarbh as Malik Kafur
Sharhaan Singh as Vijaydaan Singh
Padmavati Rao as Kunwar Baisa
Trailers:
Official 'Padmavati' Trailer


Watch-Free-HD     Download

Details
Name:Padmaavat (2018) 720p BDRip x264 ESubs- [Multi Auds]-[Hindi + Telugu + Tamil] - 1.1GB [MovCr]
Description:
Visit   www.movcr.com

 http://www.imdb.com/title/tt5935704/

 

General
Unique ID                   : 45719106933016741504436398983202129034 (0x22652E014C1629A350CE6CB7301AC48A)
Complete name               : www.MovCr.com - Padmaavat (2018) 720p BDRip x264 ESubs- [Multi Auds]-[Hindi + Telugu + Tamil] - 1.1GB [MovCr].mkv
Format                      : Matroska
Format version              : Version 4 / Version 2
File size                   : 1.15 GiB
Duration                    : 2 h 43 min
Overall bit rate mode       : Variable
Overall bit rate            : 1 005 kb/s
Movie name                  : www.MovCr.com
Encoded date                : UTC 2018-06-19 09:21:34
Writing application         : mkvmerge v23.0.0 ('The Bride Said No') 64-bit
Writing library             : libebml v1.3.6 + libmatroska v1.4.9

Video
ID                          : 1
Format                      : AVC
Format/Info                 : Advanced Video Codec
Format profile              : [email protected]
Format settings, CABAC      : Yes
Format settings, ReFrames   : 4 frames
Codec ID                    : V_MPEG4/ISO/AVC
Duration                    : 2 h 43 min
Bit rate                    : 714 kb/s
Width                       : 1 280 pixels
Height                      : 536 pixels
Display aspect ratio        : 2.40:1
Frame rate mode             : Constant
Frame rate                  : 24.000 FPS
Color space                 : YUV
Chroma subsampling          : 4:2:0
Bit depth                   : 8 bits
Scan type                   : Progressive
Bits/(Pixel*Frame)          : 0.043
Stream size                 : 835 MiB (71%)
Title                       : www.MovCr.com
Writing library             : x264 core 155 r2901 7d0ff22
Encoding settings           : cabac=1 / ref=3 / deblock=1:0:0 / analyse=0x3:0x113 / me=hex / subme=7 / psy=1 / psy_rd=1.00:0.00 / mixed_ref=1 / me_range=16 / chroma_me=1 / trellis=1 / 8x8dct=1 / cqm=0 / deadzone=21,11 / fast_pskip=1 / chroma_qp_offset=-2 / threads=12 / lookahead_threads=2 / sliced_threads=0 / nr=0 / decimate=1 / interlaced=0 / bluray_compat=0 / constrained_intra=0 / bframes=3 / b_pyramid=2 / b_adapt=1 / b_bias=0 / direct=1 / weightb=1 / open_gop=0 / weightp=2 / keyint=240 / keyint_min=24 / scenecut=40 / intra_refresh=0 / rc_lookahead=40 / rc=2pass / mbtree=1 / bitrate=714 / ratetol=1.0 / qcomp=0.60 / qpmin=0 / qpmax=69 / qpstep=4 / cplxblur=20.0 / qblur=0.5 / ip_ratio=1.40 / aq=1:1.00
Language                    : Hindi
Default                     : Yes
Forced                      : No

Audio #1
ID                          : 2
Format                      : MPEG Audio
Format version              : Version 1
Format profile              : Layer 3
Mode                        : Joint stereo
Mode extension              : MS Stereo
Codec ID                    : A_MPEG/L3
Codec ID/Hint               : MP3
Duration                    : 2 h 43 min
Bit rate mode               : Variable
Bit rate                    : 96.0 kb/s
Channel(s)                  : 2 channels
Sampling rate               : 44.1 kHz
Frame rate                  : 38.281 FPS (1152 spf)
Compression mode            : Lossy
Stream size                 : 111 MiB (9%)
Title                       : www.MovCr.com
Writing library             : LAME3.99r
Encoding settings           : -m j -V 4 -q 3 -lowpass 15.1 --abr 96
Language                    : Telugu
Default                     : No
Forced                      : No

Audio #2
ID                          : 3
Format                      : MPEG Audio
Format version              : Version 1
Format profile              : Layer 3
Mode                        : Joint stereo
Mode extension              : MS Stereo
Codec ID                    : A_MPEG/L3
Codec ID/Hint               : MP3
Duration                    : 2 h 43 min
Bit rate mode               : Variable
Bit rate                    : 96.0 kb/s
Channel(s)                  : 2 channels
Sampling rate               : 48.0 kHz
Frame rate                  : 41.667 FPS (1152 spf)
Compression mode            : Lossy
Stream size                 : 113 MiB (10%)
Title                       : www.MovCr.com
Writing library             : LAME3.99r
Encoding settings           : -m j -V 4 -q 3 -lowpass 15.1 --abr 96
Language                    : Tamil
Default                     : No
Forced                      : No

Audio #3
ID                          : 4
Format                      : MPEG Audio
Format version              : Version 1
Format profile              : Layer 3
Mode                        : Joint stereo
Mode extension              : MS Stereo
Codec ID                    : A_MPEG/L3
Codec ID/Hint               : MP3
Duration                    : 2 h 43 min
Bit rate mode               : Variable
Bit rate                    : 96.0 kb/s
Channel(s)                  : 2 channels
Sampling rate               : 48.0 kHz
Frame rate                  : 41.667 FPS (1152 spf)
Compression mode            : Lossy
Stream size                 : 112 MiB (10%)
Title                       : www.MovCr.com
Writing library             : LAME3.99r
Encoding settings           : -m j -V 4 -q 3 -lowpass 15.1 --abr 96
Language                    : Hindi
Default                     : Yes
Forced                      : Yes

Text
ID                          : 5
Format                      : UTF-8
Codec ID                    : S_TEXT/UTF8
Codec ID/Info               : UTF-8 Plain Text
Duration                    : 2 h 32 min
Bit rate                    : 39 b/s
Count of elements           : 1271
Stream size                 : 44.7 KiB (0%)
Title                       : www.MovCr.com
Language                    : English
Default                     : Yes
Forced                      : No



 
 
 
 
 
 
 
 
 
 
 
Category:Movies > Bollywood
Lang:Hindi
Total Size:1.15 GB
Info Hash:30bc5f7a00a7d9e7109e92f2c7be0a33c33d2a87
Added By:Kingmaker
Date Added:19-06-2018 10:30:35
Downloads:171

Ratings:Not Yet Rated (Log in to rate it)


Tracker:
udp://tracker.openbittorrent.com:80/announce

This Torrent also has backup trackers
URLSeedersLeechersCompleted
http://share.camoe.cn:8080/announce000
http://t.nyaatracker.com:80/announce000
http://asnet.pw:2710/announce000
http://tracker.tfile.co:80/announce000
http://pt.lax.mx:80/announce000


File List: 


Comments

No comments still posted

Top
Copyright 2018 DownloadHD -|- Page Generated In 1.060706 secs.
-|- RSS Feed -|- Feed Info