Login
Username:
Password:
[Signup]
[Recover Account]


Browse Torrents

Poll


You must be logged in to view polls



Latest Torrents
K.G.F Chapter 1 20...
- [Size: 883.60 MB]

Alanis.2017.1080p....
- [Size: 5.89 GB]

Dead.List.2018.108...
- [Size: 5.27 GB]

Back.Roads.2018.10...
- [Size: 4.47 GB]

From.Straight.as.t...
- [Size: 896.22 MB]


Torrent Details For "Waqt (2005) WEBDL 720p Hindi H.264 AAC [EXCLUSIVE] - LatestHDMovies"

Waqt (2005) WEBDL 720p Hindi H.264 AAC [EXCLUSIVE] - LatestHDMovies

Download this torrent | Magnet Download
Health:
Seeds: 0
Leechers: 10
Completed: 749 
Last Checked: 15-11-2018 07:03:38
External Torrent
Update Stats



Images Host

Poster


iMDB
Imdb Picture Title: Waqt: The Race Against Time
Year: 2005
Runtime: 153 minutes
Votes: 8630
Rating: 7.0/10
Language: Hindi
Country: India
All Genres: Comedy, Drama, Musical, Romance
Plot Outline: Waqt the race against time is the story of a father and a son between whom there is a special bond. Ishwarchand Thakur (Amitabh Bachchan) and Sumitra Thakur (Shefali Shah) are a married couple who run a toy factory together. They have a son called Aditya Thakur (Akshay Kumar) who does not have any interest in responsibility or what he wants to do in life. It gets even worse when he elopes with his girlfriend (Pooja, played by Priyanka Chopra), the daughter of Natu (Boman Irani). When Pooja gets pregnant, both Ishwar and Sumitra decide to make Aditya realize his responsibilities, as he will have to take care of his wife and child. Both take drastic measures and even chuck Aditya out the house along with Pooja. The farce becomes so bad that Aditya begins to hate his father and they do not speak to each other for a long time. At the same time Aditya becomes aware of his role in life. However, Ishwar has done all this for a reason and is hiding something from Aditya. Ishwar is trying to ... Written by [email protected][email protected]


Tagline: The race against time
Director: Vipul Amrutlal Shah
Writing By: Aatish Kapadia,
Produced By: Vipul Amrutlal Shah,Manmohan Shetty,
Music: Anu Malik
Cast:
Amitabh Bachchan as Ishwarchand Thakur
Akshay Kumar as Aditya Thakur
Priyanka Chopra as Pooja 'Mitali'
Shefali Shah as Sumitra Thakur
Boman Irani as Natu
Rajpal Yadav as Laxman
Benjamin Gilani as Talent Agent
Asawari Joshi as Ashalata (Natu's wife)
Rajeev Mehta as
Hemant Pandey as


Watch-Free-HD     Download

Details
Name:Waqt (2005) WEBDL 720p Hindi H.264 AAC [EXCLUSIVE] - LatestHDMovies
Description:




[[>>SAMPLE<<]]
 http://oload.stream/f/1DHLJa0...es___TeamSHAHID-.mp4







General
Unique ID                   : 254908852097018352663357534349350065427 (0xBFC5A8BD0690C62C1DC7DBAF89FED513)
Complete name               : C:\Users\SHAHID\Downloads\Video\Waqt (2005) WEBDL 720p Hindi H.264 AAC [EXCLUSIVE] - LatestHDMovies.mkv
Format                      : Matroska
Format version              : Version 4 / Version 2
File size                   : 1.32 GiB
Duration                    : 2 h 27 min
Overall bit rate            : 1 281 kb/s
Movie name                  : LatestHDMovies | TeamSHAHID
Encoded date                : UTC 2018-06-25 13:54:30
Writing application         : mkvmerge v24.0.0 ('Beyond The Pale') 32-bit
Writing library             : libebml v1.3.6 + libmatroska v1.4.9
Cover                       : Yes
Attachments                 : Cover.jpg

Video
ID                          : 1
Format                      : AVC
Format/Info                 : Advanced Video Codec
Format profile              : [email protected]
Format settings             : CABAC / 5 Ref Frames
Format settings, CABAC      : Yes
Format settings, ReFrames   : 5 frames
Codec ID                    : V_MPEG4/ISO/AVC
Duration                    : 2 h 27 min
Bit rate                    : 1 216 kb/s
Width                       : 1 280 pixels
Height                      : 720 pixels
Display aspect ratio        : 16:9
Frame rate mode             : Constant
Frame rate                  : 25.000 FPS
Color space                 : YUV
Chroma subsampling          : 4:2:0
Bit depth                   : 8 bits
Scan type                   : Progressive
Bits/(Pixel*Frame)          : 0.053
Stream size                 : 1.26 GiB (95%)
Title                       : LatestHDMovies | TeamSHAHID
Writing library             : x264 core 148 r2643 5c65704
Encoding settings           : cabac=1 / ref=5 / deblock=1:0:0 / analyse=0x3:0x113 / me=hex / subme=7 / psy=1 / psy_rd=1.00:0.00 / mixed_ref=1 / me_range=16 / chroma_me=1 / trellis=1 / 8x8dct=1 / cqm=0 / deadzone=21,11 / fast_pskip=1 / chroma_qp_offset=-2 / threads=8 / lookahead_threads=8 / sliced_threads=1 / slices=8 / nr=0 / decimate=1 / interlaced=0 / bluray_compat=0 / constrained_intra=0 / bframes=0 / weightp=2 / keyint=250 / keyint_min=25 / scenecut=40 / intra_refresh=0 / rc=abr / mbtree=0 / bitrate=1216 / ratetol=1.0 / qcomp=0.60 / qpmin=0 / qpmax=69 / qpstep=4 / ip_ratio=1.40 / aq=1:1.00
Language                    : Hindi
Default                     : Yes
Forced                      : No

Audio
ID                          : 2
Format                      : AAC
Format/Info                 : Advanced Audio Codec
Format profile              : LC
Codec ID                    : A_AAC-2
Duration                    : 2 h 27 min
Bit rate                    : 61.4 kb/s
Channel(s)                  : 2 channels
Channel positions           : Front: L R
Sampling rate               : 48.0 kHz
Frame rate                  : 46.875 FPS (1024 SPF)
Compression mode            : Lossy
Stream size                 : 64.9 MiB (5%)
Title                       : LatestHDMovies | TeamSHAHID
Language                    : Hindi
Default                     : Yes
Forced                      : No


 
                       
Category:Movies > Bollywood
Lang:Hindi
Total Size:1.32 GB
Info Hash:b76e7c6067dc4353b9d58b3fde85bd465be0421d
Added By:LatestHDMovies
Date Added:25-06-2018 15:14:48
Downloads:626

Ratings:Not Yet Rated (Log in to rate it)


Tracker:
udp://tracker.coppersurfer.tk:6969/announce


File List: 


Comments

<< Previous      Next >>
1 - 1

[Report] Posted: 15-11-2018 at 07:02:50
wiki



THAnks BRO GOOD SHARe

1 - 1
<< Previous      Next >>


Top
Copyright 2018 DownloadHD -|- Page Generated In 3.317114 secs.
-|- RSS Feed -|- Feed Info