Login
Username:
Password:
[Signup]
[Recover Account]


Browse Torrents

Poll


You must be logged in to view polls



Latest Torrents
Real.Time.With.Bil...
- [Size: 1,014.34 MB]

Chaamp 2017 1080p ...
- [Size: 3.93 GB]

Journal.64.2018.DA...
- [Size: 8.74 GB]

K.G.F Chapter 1 20...
- [Size: 883.60 MB]

Alanis.2017.1080p....
- [Size: 5.89 GB]


Torrent Details For "Chupan Chupai (2017) UNTOUCHED HDTV 480p Urdu H.264 AAC [EXCLUSIVE] - LatestHDMovies"

Chupan Chupai (2017) UNTOUCHED HDTV 480p Urdu H.264 AAC [EXCLUSIVE] - LatestHDMovies

Download this torrent | Magnet Download
Health:
Seeds: 0
Leechers: 10
Completed: 2,948 
Last Checked: 16-11-2018 06:21:46
External Torrent
Update Stats



Images Host

Poster


iMDB
Imdb Picture Original Title: Chupan Chupai
Title: Hide and Seek
Year: 2017
Votes: 100
Rating: 7.2/10
Language: Urdu
Country: Pakistan
All Genres: Comedy, Crime
Plot Outline: A comedy of errors revolving around three friends Feddy, Koki and Teli, stupid by nature and cursed by luck. Their lives take a chilling turn when they cross paths with Babu and his alter ego girlfriend Pari.


Director: Mohsin Ali

Produced By: Ray Khan,Fahad Shaikh,Zayed Sheikh,
Cast:
Ahsan Khan as
Neelam Muneer as
Faizan Khawaja as
Talat Hussain as
Adnan Jaffar as
Rehan Sheikh as
Javed Sheikh as
Sakina Samo as


Watch-Free-HD     Download

Details
Name:Chupan Chupai (2017) UNTOUCHED HDTV 480p Urdu H.264 AAC [EXCLUSIVE] - LatestHDMovies
Description:



[[>>>SAMPLE<<<]]
 http://oload.stream/f/AiPIe0r...es___TeamSHAHID-.mp4








General
Unique ID                   : 339365966656116927915475084703598186961 (0xFF4F81FA85512A5ABC1AC3C4B7FD11D1)
Complete name               : C:\Users\SHAHID\Downloads\Video\Chupan Chupai (2017) UNTOUCHED HDTV 480p Urdu H.264 AAC [EXCLUSIVE - LatestHDMovies.mkv
Format                      : Matroska
Format version              : Version 4 / Version 2
File size                   : 370 MiB
Duration                    : 1 h 52 min
Overall bit rate            : 461 kb/s
Movie name                  : LatestHDMovies | TeamSHAHID
Encoded date                : UTC 2018-06-27 13:53:50
Writing application         : mkvmerge v24.0.0 ('Beyond The Pale') 32-bit
Writing library             : libebml v1.3.6 + libmatroska v1.4.9
Cover                       : Yes
Attachments                 : Cover.jpg

Video
ID                          : 1
Format                      : AVC
Format/Info                 : Advanced Video Codec
Format profile              : [email protected]
Format settings             : CABAC / 3 Ref Frames
Format settings, CABAC      : Yes
Format settings, ReFrames   : 3 frames
Codec ID                    : V_MPEG4/ISO/AVC
Duration                    : 1 h 52 min
Bit rate                    : 331 kb/s
Width                       : 854 pixels
Height                      : 480 pixels
Display aspect ratio        : 16:9
Frame rate mode             : Constant
Frame rate                  : 25.000 FPS
Color space                 : YUV
Chroma subsampling          : 4:2:0
Bit depth                   : 8 bits
Scan type                   : Progressive
Bits/(Pixel*Frame)          : 0.032
Stream size                 : 265 MiB (72%)
Title                       : LatestHDMovies | TeamSHAHID
Language                    : Urdu
Default                     : Yes
Forced                      : No

Audio
ID                          : 2
Format                      : AAC
Format/Info                 : Advanced Audio Codec
Format profile              : LC
Codec ID                    : A_AAC-2
Duration                    : 1 h 52 min
Bit rate                    : 128 kb/s
Channel(s)                  : 2 channels
Channel positions           : Front: L R
Sampling rate               : 44.1 kHz
Frame rate                  : 43.066 FPS (1024 SPF)
Compression mode            : Lossy
Delay relative to video     : 12 ms
Stream size                 : 103 MiB (28%)
Title                       : LatestHDMovies | TeamSHAHID
Language                    : Urdu
Default                     : Yes
Forced                      : No




                       
Category:Movies > Pakistani
Lang:Urdu
Total Size:369.88 MB
Info Hash:3502ae876fd1808c1e44331a1d5836a9b77cde04
Added By:LatestHDMovies
Date Added:27-06-2018 15:03:53
Downloads:1,076

Ratings:Not Yet Rated (Log in to rate it)


Tracker:
udp://tracker.opentrackr.org:1337/announce


File List: 


Comments

<< Previous      Next >>
1 - 2

[Report] Posted: 01-08-2018 at 19:59:11
sheddymcfc



voice is out of sync.do not download.

[Report] Posted: 16-11-2018 at 06:14:21
wiki



Audio Voice Slow Hai Kiyaaa??? Plz Tell me :(

1 - 2
<< Previous      Next >>


Top
Copyright 2018 DownloadHD -|- Page Generated In 3.726261 secs.
-|- RSS Feed -|- Feed Info