Login
Username:
Password:
[Signup]
[Recover Account]


Browse Torrents

Poll


You must be logged in to view polls



Latest Torrents
Windy.City.Rehab.S...
- [Size: 354.87 MB]

Bobs.Burgers.S09E1...
- [Size: 347.84 MB]

Spider-Man.Into th...
- [Size: 2.26 GB]

The.Simpsons.S30E1...
- [Size: 544.03 MB]

The.Simpsons.S30E1...
- [Size: 301.38 MB]


Torrent Details For "Bol Radha Bol(1992) Movie 1080p HDrip AAC Audio-HDprintMovies"

Bol Radha Bol(1992) Movie 1080p HDrip AAC Audio-HDprintMovies

Download this torrent | Magnet Download
Health:
Seeds: 0
Leechers: 2
Completed:
Last Checked: 24-12-2018 03:01:48
External Torrent
Update Stats



Images Host

Poster


iMDB
Imdb Picture Title: Bol Radha Bol
Year: 1992
Runtime: 164 minutes
Votes: 617
Rating: 6.1/10
Language: Hindi
Country: India
All Genres: Action, Comedy, Drama, Romance, Thriller
Plot Outline: Kishan Malhotra finds his life turned upside down, when he returns home one day to find that his place has been taken over by a look-alike imposter. When he attempts to assert his identity, no one including his very own mother, or even his dog, believes him. The only person he can trust now is a young lady named Radha, and together they embark on a task of finding out the truth; who is behind this conspiracy, and if at all it is possible for him to get his life back together again. Written by rAjOo ([email protected])


Director: David Dhawan
Writing By: Anees Bazmee,Sanjeev Duggal,Sanjeev Duggal,
Produced By: Nitin Manmohan,
Music: Anand Chitragupth Milind Chitragupth
Cast:
Rishi Kapoor as Kishan Malhotra / Tony
Juhi Chawla as Radha / Rita
Kader Khan as Jugnu
Shakti Kapoor as Gungu / Inspector Bhende
Alok Nath as Shanti Prasad
Mohnish Bahl as Bhanu Prasad
Kiran Kumar as Inspector Dholakia
Sushma Seth as Sumitra Malhotra
Jagdish Raj as Police Commisioner
Rajendra Nath as Blindman


Watch-Free-HD     Download

Details
Name:Bol Radha Bol(1992) Movie 1080p HDrip AAC Audio-HDprintMovies
Description:




General
Complete name                            : C:\Users\SUMAN\Videos\Bol Radha Bol(1992) Movie 1080p HDrip AAC Audio-HDprintMovies.mp4
Format                                   : MPEG-4
Format profile                           : Base Media
Codec ID                                 : isom (isom/iso2/avc1/mp41)
File size                                : 3.53 GiB
Duration                                 : 2 h 44 min
Overall bit rate mode                    : Variable
Overall bit rate                         : 3 077 kb/s
Writing application                      : Lavf58.9.100

Video
ID                                       : 1
Format                                   : AVC
Format/Info                              : Advanced Video Codec
Format profile                           : [email protected]
Format settings                          : CABAC / 4 Ref Frames
Format settings, CABAC                   : Yes
Format settings, RefFrames               : 4 frames
Format settings, GOP                     : M=4, N=50
Codec ID                                 : avc1
Codec ID/Info                            : Advanced Video Coding
Duration                                 : 2 h 44 min
Bit rate                                 : 3 000 kb/s
Width                                    : 1 920 pixels
Height                                   : 1 080 pixels
Display aspect ratio                     : 16:9
Frame rate mode                          : Constant
Frame rate                               : 25.000 FPS
Color space                              : YUV
Chroma subsampling                       : 4:2:0
Bit depth                                : 8 bits
Scan type                                : Progressive
Bits/(Pixel*Frame)                       : 0.058
Stream size                              : 3.45 GiB (98%)
Writing library                          : x264 core 148 r2795 aaa9aa8
Encoding settings                        : cabac=1 / ref=2 / deblock=1:0:0 / analyse=0x3:0x113 / me=hex / subme=7 / psy=1 / psy_rd=1.00:0.00 / mixed_ref=1 / me_range=16 / chroma_me=1 / trellis=1 / 8x8dct=1 / cqm=0 / deadzone=21,11 / fast_pskip=1 / chroma_qp_offset=-2 / threads=34 / lookahead_threads=5 / sliced_threads=0 / nr=0 / decimate=1 / interlaced=0 / bluray_compat=0 / constrained_intra=0 / bframes=3 / b_pyramid=2 / b_adapt=1 / b_bias=0 / direct=1 / weightb=1 / open_gop=0 / weightp=2 / keyint=50 / keyint_min=26 / scenecut=0 / intra_refresh=0 / rc_lookahead=40 / rc=abr / mbtree=1 / bitrate=3000 / ratetol=1.0 / qcomp=0.60 / qpmin=0 / qpmax=69 / qpstep=4 / ip_ratio=1.40 / aq=1:1.00

Audio
ID                                       : 2
Format                                   : AAC
Format/Info                              : Advanced Audio Codec
Format profile                           : LC
Codec ID                                 : mp4a-40-2
Duration                                 : 2 h 44 min
Duration_FirstFrame                      : 59 ms
Bit rate mode                            : Variable
Bit rate                                 : 64.8 kb/s
Maximum bit rate                         : 68.3 kb/s
Channel(s)                               : 2 channels
Channel positions                        : Front: L R
Sampling rate                            : 48.0 kHz
Frame rate                               : 46.875 FPS (1024 SPF)
Compression mode                         : Lossy
Stream size                              : 76.2 MiB (2%)
Default                                  : Yes
Alternate group                          : 1

















Category:Movies > Bollywood
Lang:Hindi
Total Size:3.53 GB
Info Hash:5bd85a9cc798717c2a0ed06bfc1368cf1e931991
Added By:suman142
Date Added:27-06-2018 18:02:17
Downloads:596

Ratings:Not Yet Rated (Log in to rate it)


Tracker:
udp://tracker.coppersurfer.tk:6969/announce


File List: 


Comments

<< Previous      Next >>
1 - 1

[Report] Posted: 28-06-2018 at 08:49:52
cinelover



Print quality is very good but it is not playing smoothly in any player. It is playing with jerks after every one or two seconds.

1 - 1
<< Previous      Next >>


Top
Copyright 2018 DownloadHD -|- Page Generated In 4.011733 secs.
-|- RSS Feed -|- Feed Info