Login
Username:
Password:
[Signup]
[Recover Account]


Browse Torrents

Poll


You must be logged in to view polls



Latest Torrents
Crucible.of.the.Va...
- [Size: 1.39 GB]

Real.Time.With.Bil...
- [Size: 1,014.34 MB]

Chaamp 2017 1080p ...
- [Size: 3.93 GB]

Journal.64.2018.DA...
- [Size: 8.74 GB]

K.G.F Chapter 1 20...
- [Size: 883.60 MB]


Torrent Details For "Mithun Chakraborty 4 Best 90's Movies Mega Pack-HDprintMovies"

Mithun Chakraborty 4 Best 90's Movies Mega Pack-HDprintMovies

Download this torrent | Magnet Download
Health:
Seeds: 0
Leechers: 4
Completed:
Last Checked: 29-12-2018 01:25:01
External Torrent
Update Stats



Images Host

Poster


Watch-Free-HD     Download

Details
Name:Mithun Chakraborty 4 Best 90's Movies Mega Pack-HDprintMovies
Description:
1.Aadmi(1993) Movie 720p HDrip AAC Audio-HDprintMovies




Format                                   : AVC
Format/Info                              : Advanced Video Codec
Format profile                           : [email protected]
Format settings                          : CABAC / 4 Ref Frames
Format settings, CABAC                   : Yes
Format settings, RefFrames               : 4 frames
Format settings, GOP                     : M=3, N=25
Codec ID                                 : avc1
Codec ID/Info                            : Advanced Video Coding
Duration                                 : 2 h 34 min
Bit rate                                 : 1 197 kb/s
Maximum bit rate                         : 2 929 kb/s
Width                                    : 1 366 pixels
Height                                   : 720 pixels
Display aspect ratio                     : 1.897
Frame rate mode                          : Constant
Frame rate                               : 25.000 FPS
Color space                              : YUV
Chroma subsampling                       : 4:2:0
Bit depth                                : 8 bits
Scan type                                : Progressive
Bits/(Pixel*Frame)                       : 0.049
Stream size                              : 1.29 GiB (92%)
Writing library                          : Zencoder Video Encoding System
Encoded date                             : UTC 2017-10-17 21:35:08
Tagged date                              : UTC 2017-10-17 22:00:33









2.Jaag Utha Insan(1984) Movie 720p HDrip AAC Audio-HDprintMovies




Format                                   : AVC
Format/Info                              : Advanced Video Codec
Format profile                           : [email protected]
Format settings                          : CABAC / 4 Ref Frames
Format settings, CABAC                   : Yes
Format settings, RefFrames               : 4 frames
Format settings, GOP                     : M=3, N=25
Codec ID                                 : avc1
Codec ID/Info                            : Advanced Video Coding
Duration                                 : 2 h 3 min
Bit rate                                 : 1 198 kb/s
Maximum bit rate                         : 3 075 kb/s
Width                                    : 1 280 pixels
Height                                   : 720 pixels
Display aspect ratio                     : 16:9
Frame rate mode                          : Constant
Frame rate                               : 25.000 FPS
Color space                              : YUV
Chroma subsampling                       : 4:2:0
Bit depth                                : 8 bits
Scan type                                : Progressive
Bits/(Pixel*Frame)                       : 0.052
Stream size                              : 1.04 GiB (92%)
Writing library                          : Zencoder Video Encoding System
Encoded date                             : UTC 2017-10-17 17:26:20
Tagged date                              : UTC 2017-10-17 17:44:56









3.Phool Aur Angaar(1993) Movie 720p HDrip AAC Audio-HDprintMovies




Format                                   : AVC
Format/Info                              : Advanced Video Codec
Format profile                           : [email protected]
Format settings                          : CABAC / 4 Ref Frames
Format settings, CABAC                   : Yes
Format settings, RefFrames               : 4 frames
Codec ID                                 : avc1
Codec ID/Info                            : Advanced Video Coding
Duration                                 : 2 h 25 min
Bit rate                                 : 1 195 kb/s
Maximum bit rate                         : 3 208 kb/s
Width                                    : 1 280 pixels
Height                                   : 720 pixels
Display aspect ratio                     : 16:9
Frame rate mode                          : Constant
Frame rate                               : 25.000 FPS
Color space                              : YUV
Chroma subsampling                       : 4:2:0
Bit depth                                : 8 bits
Scan type                                : Progressive
Bits/(Pixel*Frame)                       : 0.052
Stream size                              : 1.21 GiB (92%)
Writing library                          : Zencoder Video Encoding System
Encoded date                             : UTC 2017-10-17 21:10:08
Tagged date                              : UTC 2017-10-17 21:33:30










4.Ravan Raaj A True Story(1995) Movie 1080p HDrip AAC Audio-HDprintMovies




Format                                   : AVC
Format/Info                              : Advanced Video Codec
Format profile                           : [email protected]
Format settings                          : CABAC / 4 Ref Frames
Format settings, CABAC                   : Yes
Format settings, RefFrames               : 4 frames
Format settings, GOP                     : M=4, N=50
Codec ID                                 : avc1
Codec ID/Info                            : Advanced Video Coding
Duration                                 : 2 h 29 min
Bit rate                                 : 3 000 kb/s
Width                                    : 1 964 pixels
Height                                   : 1 080 pixels
Display aspect ratio                     : 1.991
Frame rate mode                          : Constant
Frame rate                               : 25.000 FPS
Color space                              : YUV
Chroma subsampling                       : 4:2:0
Bit depth                                : 8 bits
Scan type                                : Progressive
Bits/(Pixel*Frame)                       : 0.057
Stream size                              : 3.12 GiB (98%)
Writing library                          : x264 core 148 r2795 aaa9aa8








Category:Movies > Bollywood
Lang:Hindi
Total Size:7.04 GB
Info Hash:6c2f8418c7d035acd2ffc4397d38692dd53d41f0
Added By:suman142
Date Added:27-06-2018 19:27:33
Downloads:929

Ratings:Not Yet Rated (Log in to rate it)


Tracker:
udp://tracker.coppersurfer.tk:6969/announce


File List: 


Comments

<< Previous      Next >>
1 - 2

[Report] Posted: 29-06-2018 at 05:07:36
metrorest



REQUEST, :)
UPLOAD SOME Sanjay Leela Bhansali MOVIES
Black (2005)
Devdas (2002)
Hum Dil De Chuke Sanam (1999)
Goliyon Ki Rasleela Ram-Leela (2013)
Padmaavat (2018)
Bajirao Mastani (2015)
Guzaarish (2010)
Saawariya (2007)
Khamoshi: The Musical (1996)
ETC. ALL MOVIES NEAR 10 GB, (BluRay/HDRIp/DVDRIP)
THANKYOU

[Report] Posted: 01-07-2018 at 13:21:36
bladez



please upload more mithuns movies thankyou

1 - 2
<< Previous      Next >>


Top
Copyright 2018 DownloadHD -|- Page Generated In 5.912639 secs.
-|- RSS Feed -|- Feed Info