Login
Username:
Password:
[Signup]
[Recover Account]


Browse Torrents

Poll


You must be logged in to view polls



Latest Torrents
Evil.Lives.Here.S0...
- [Size: 220.93 MB]

Call.The.Midwife.S...
- [Size: 339.36 MB]

Call.The.Midwife.S...
- [Size: 340.85 MB]

Top.Gear.S26E01.RE...
- [Size: 1.41 GB]

Fast.Layne.S01E01....
- [Size: 233.06 MB]


Torrent Details For "Dinosaur 2000 720p Esub BluRay Dual Audio English Hindi 5.1 GOPI SAHI"

Dinosaur 2000 720p Esub BluRay Dual Audio English Hindi 5.1 GOPI SAHI

Download this torrent | Magnet Download
Health:
Seeds: 0
Leechers: 0
Completed:
Last Checked: 16-02-2019 10:41:13
External Torrent
Update Stats



Images Host

Poster
No poster


iMDB
Imdb Picture Title: Dinosaur
Year: 2000
Runtime: 82 minutes
Votes: 41239
Rating: 6.5/10
Language: English
Country: USA
All Genres: Animation, Adventure, Family, Thriller
Plot Outline: An orphaned dinosaur raised by lemurs joins an arduous trek to a sancturary after a meteorite shower destroys his family home.
Tagline: Discover a world you've only imagined
Director: Eric Leighton
Ralph Zondag
Writing By: Thom Enriquez,John Harrison,Robert Nelson Jacobs,Ralph Zondag,John Harrison,Robert Nelson Jacobs,Walon Green,Gregory Gunter,Shirley Pierce,Jonathan Roberts,Rhett Reese,Tamara Lusher-Stocker,
Produced By: Baker Bloodworth,Jim Burton,Enfys Dickinson,Pam Marsden,
Music: James Newton Howard
Plot:

During an attack on a pack of Iguanodon, an egg is separated and ends up with the possession of a group of lemurs. The lemurs care for this egg and the young creature born from it, which they call Aladar. When a meteor shower hits earth, Aladar and his family must leave their homeland. Away from home and as close to danger as they have ever been, they meet up with a huge group of dinosaurs, led by Kron and Bruton. All together they are trying to reach the nesting grounds, but it's not going to be easy.

- Written by simon

Long before humans appeared on the planet, dinosaurs ruled the earth. On a little off-coast island, a clan of lemurs finds a dinosaur egg, hatching. Since there are no parents, the lemurs take care of the newborn, Aladar. Years later, a medium meteor goes down close to the island and the shockwave forces its inhabitants to flee to the continent. There, Aladar and his family meet other dinosaurs for the first time as well as real dangers. The destruction caused by the meteor here has also forced a herd of different herbivores to move to a remote valley that can provide food and protection against the carnivorous predators following after. Since Aladar grew up with a different understanding of the ways of the world, his way of helping others first isn't accepted within the herd, but soon it is proven that reason may be better than panic.

- Written by Julian Reischl <[email protected]>

Dinosaur is set in the twilight of the dinosaurs, when the killer comet arrives, and deals with the legacy they leave for the emerging mammals. One dinosaur who had been raised by Lemurs becomes a sort of saurian Moses and leads the Lemurs to safety after the comet ends the age when his own kind ruled the earth.

- Written by Paolo Costabel <[email protected]>

An orphaned dinosaur raised by lemurs joins an arduous trek to a sancturary after a meteorite shower destroys his family home.

- Written by Kenneth Chisholm
Cast:
D.B. Sweeney as Aladar
Alfre Woodard as Plio
Ossie Davis as Yar
Max Casella as Zini
Hayden Panettiere as Suri
Samuel E. Wright as Kron
Julianna Margulies as Neera
Peter Siragusa as Bruton
Joan Plowright as Baylene
Della Reese as Eema


Watch-Free-HD     Download

Details
Name:Dinosaur 2000 720p Esub BluRay Dual Audio English Hindi 5.1 GOPI SAHI
Description:


Video
Format                         : AVC
Codec ID                       : V_MPEG4/ISO/AVC
Duration                       : 1 h 21 min
Bit rate                       : 929 kb/s
Width                          : 1 280 pixels
Height                         : 688 pixels
Display aspect ratio           : 1.85:1
Frame rate mode                : Constant
Frame rate                     : 23.976 (24000/1001) FPS
Stream size                    : 545 MiB (85%)
Writing library                : x264 core 129 r2230 1cffe9f

Audio #1
Format                         : AAC
Duration                       : 1 h 15 min
Bit rate                       : 88.9 kb/s
Channel(s)                     : 6 channels
Channel positions              : Front: L C R, Side: L R, LFE
Sampling rate                  : 44.1 kHz
Frame rate                     : 43.066 FPS (1024 spf)
Stream size                    : 48.1 MiB (7%)
Language                       : English

Audio #2
ID                             : 4
Format                         : AAC
Duration                       : 1 h 15 min
Bit rate                       : 88.8 kb/s
Channel(s)                     : 6 channels
Channel positions              : Front: L C R, Side: L R, LFE
Sampling rate                  : 44.1 kHz
Frame rate                     : 43.066 FPS (1024 spf)
Stream size                    : 48.0 MiB (7%)
Language                       : Hindi

Text
Duration                       : 1 h 14 min
Language                       : English



Category:Movies > Hollywood Dub
Lang:Hindi
Total Size:642.26 MB
Info Hash:f5cd403ca531f8020c14a6f27092bfbd671471fd
Added By:gopisahi
Date Added:22-06-2017 18:23:46
Downloads:507

Ratings:Not Yet Rated (Log in to rate it)


Tracker:
udp://tracker.coppersurfer.tk:6969/announce


File List: 


Comments

No comments still posted

Top
Copyright 2018 DownloadHD -|- Page Generated In 0.439203 secs.
-|- RSS Feed -|- Feed Info