Login
Username:
Password:
[Signup]
[Recover Account]


Browse Torrents

Poll


You must be logged in to view polls



Latest Torrents
Dead.List.2018.108...
- [Size: 5.27 GB]

Back.Roads.2018.10...
- [Size: 4.47 GB]

From.Straight.as.t...
- [Size: 896.22 MB]

Cheater 2016 Marat...
- [Size: 2.59 GB]

Live.PD.S03E45.HDT...
- [Size: 1.75 GB]


Torrent Details For "Bandits.2001.1080p.BluRay.REMUX.AVC.DTS-HD.MA.5.1-FGT"

Bandits.2001.1080p.BluRay.REMUX.AVC.DTS-HD.MA.5.1-FGT

Download this torrent | Magnet Download
Health:
Seeds: 0
Leechers: 4
Completed:
Last Checked: 06-02-2019 19:24:41
External Torrent
Update Stats



Images Host

Poster


iMDB
Imdb Picture Title: Bandits
Year: 2001
Runtime: 123 minutes
Votes: 60840
Rating: 6.5/10
Language: English
Country: USA
All Genres: Comedy, Crime, Drama, Romance
Plot Outline: Two convicts, one charismatic (Willis) and the other a hypochondriac (Thornton), break out of prison and immediately start a bank robbing spree, kidnapping bank managers, spending the night with their families, then going with the managers in the morning to rob the banks. Using a dim-witted stunt man as their getaway driver and lookout, the three successfully pull off several jobs (even gaining the attention of a television show about American criminals), and become known as "The Sleepover Bandits." Things are going great until the bank managers begin to realize that the robbers are non-violent and therefore no threat to them or their employees, changing the game for the Bandits. To add to the complications, a bored & unhappy housewife (Blanchett) ends up in the hands of the criminals, and begins to have romantic feelings for both Willis and Thornton, causing a sticky love triangle. Written by John Sacksteder <[email protected]>


Tagline: Two's Company, Three's A Crime.
Director: Barry Levinson
Writing By: Harley Peyton,
Produced By: Ashok Amritraj,Jim Andrino,Michele Berk,Michael Birnbaum,Stephen J. Eads,Freddie Glusman,David Hoberman,Barry Levinson,Patrick McCormick,Harley Peyton,Arnold Rifkin,Lenny Vullo,Paula Weinstein,David Willis,
Music: Christopher Young
Cast:
Bruce Willis as Joe Blake
Billy Bob Thornton as Terry Collins
Cate Blanchett as Kate Wheeler
Troy Garity as Harvey Pollard
BrĂ­an F. O'Byrne as Darill Miller
Stacey Travis as Cloe Miller
Bobby Slayton as Darren Head
January Jones as Claire
Azura Skye as Cheri
Peggy Miley as Mildred Kronenberg


Watch-Free-HD     Download

Details
Name:Bandits.2001.1080p.BluRay.REMUX.AVC.DTS-HD.MA.5.1-FGT
Description:
 
 
 


Video
ID : 1
Format : AVC
Format/Info : Advanced Video Codec
Format profile : [email protected]
Format settings : CABAC / 4 Ref Frames
Format settings, CABAC : Yes
Format settings, ReFrames : 4 frames
Codec ID : V_MPEG4/ISO/AVC
Duration : 2 h 3 min
Bit rate mode : Variable
Bit rate : 20.7 Mb/s
Maximum bit rate : 38.0 Mb/s
Width : 1 920 pixels
Height : 1 080 pixels
Display aspect ratio : 16:9
Frame rate mode : Constant
Frame rate : 23.976 (24000/1001) FPS
Color space : YUV
Chroma subsampling : 4:2:0
Bit depth : 8 bits
Scan type : Progressive
Bits/(Pixel*Frame) : 0.417
Stream size : 17.8 GiB (80%)
Title : Bandits.2001.1080p.BluRay.REMUX.AVC.DTS-HD.MA.5.1-FGT
Language : English
Default : No
Forced : No

Audio #1
ID : 2
Format : DTS
Format/Info : Digital Theater Systems
Format profile : MA / Core
Codec ID : A_DTS
Duration : 2 h 3 min
Bit rate mode : Variable / Constant
Bit rate : 3 720 kb/s / 1 509 kb/s
Channel(s) : 6 channels
Channel positions : Front: L C R, Side: L R, LFE
Sampling rate : 48.0 kHz
Frame rate : 93.750 FPS (512 SPF)
Bit depth : 24 bits
Compression mode : Lossless / Lossy
Stream size : 3.20 GiB (14%)
Title : Bandits.2001.1080p.BluRay.REMUX.AVC.DTS-HD.MA.5.1-FGT
Language : English
Default : Yes
Forced : No

Audio #2
ID : 3
Format : DTS
Format/Info : Digital Theater Systems
Codec ID : A_DTS
Duration : 2 h 3 min
Bit rate mode : Constant
Bit rate : 1 509 kb/s
Channel(s) : 6 channels
Channel positions : Front: L C R, Side: L R, LFE
Sampling rate : 48.0 kHz
Frame rate : 93.750 FPS (512 SPF)
Bit depth : 24 bits
Compression mode : Lossy
Stream size : 1.30 GiB (6%)
Title : Bandits.2001.1080p.BluRay.REMUX.AVC.DTS-HD.MA.5.1-FGT
Language : English
Default : No
Forced : No

Text
ID : 4
Format : PGS
Muxing mode : zlib
Codec ID : S_HDMV/PGS
Codec ID/Info : Picture based subtitle format used on BDs/HD-DVDs
Duration : 1 h 58 min
Bit rate : 34.3 kb/s
Count of elements : 2481
Stream size : 28.9 MiB (0%)
Title : English-PGS
Language : English
Default : Yes
Forced : No

Menu
00:00:00.000 : en:Chapter 01
00:11:41.742 : en:Chapter 02
00:19:45.184 : en:Chapter 03
00:30:01.466 : en:Chapter 04
00:41:32.990 : en:Chapter 05
00:54:42.779 : en:Chapter 06
01:02:19.360 : en:Chapter 07
01:10:45.991 : en:Chapter 08
01:22:30.403 : en:Chapter 09
01:28:46.904 : en:Chapter 10
01:36:38.292 : en:Chapter 11
01:50:17.068 : en:Chapter 12
01:58:18.466 : en:Chapter 13
Category:Movies > Remux
Lang:English  English
Total Size:22.31 GB
Info Hash:9ed5a1288829a388642af8df12850432cda1040e
Added By:Agent47
Date Added:20-07-2018 13:52:56
Downloads:141

Ratings:Not Yet Rated (Log in to rate it)


Tracker:
http://tracker.trackerfix.com:80/announce


File List: 


Comments

No comments still posted

Top
Copyright 2018 DownloadHD -|- Page Generated In 1.797666 secs.
-|- RSS Feed -|- Feed Info