Login
Username:
Password:
[Signup]
[Recover Account]


Browse Torrents

Poll


You must be logged in to view polls



Latest Torrents
From.Straight.as.t...
- [Size: 896.22 MB]

Cheater 2016 Marat...
- [Size: 2.59 GB]

Live.PD.S03E45.HDT...
- [Size: 1.75 GB]

Overlord.2018.INTE...
- [Size: 18.67 GB]

Crucible.of.the.Va...
- [Size: 1.33 GB]


Torrent Details For "Nanak Shah Fakir [Punjabi] 1080p HD Itunes DL AVC DD 5.1 Audio ESUBS Team Jio Exclusive"

Nanak Shah Fakir [Punjabi] 1080p HD Itunes DL AVC DD 5.1 Audio ESUBS Team Jio Exclusive

Download this torrent | Magnet Download
Health:
Seeds: 0
Leechers: 6
Completed:
Last Checked: 13-11-2018 21:43:01
External Torrent
Update Stats



Images Host

Poster


iMDB
Imdb Picture Title: Nanak Shah Fakir
Year: 2014
Runtime: 146 minutes
Votes: 174
Rating: 9.0/10
All Genres: Drama
Plot Outline: Nanak Shah Fakir, the film has been a meditation of each waking day that began as a dream I saw one particular night. The film is named on the life and teachings of Guru Nanak. Born in 1469 A.D. Guru Nanak traveled the world to spread the essence of 'Ik Onkar' (there's but One God) as a way of life. The film, follows the great saint on an epic journey across the globe, spreading the Lord's message of equality, peace and 'Ik Onkar'. It's a first-of-its-kind film in about 600 years of Sikh history, and has been depicted through the voice of his friend, companion and disciple 'Bhai Mardana'. Guru Nanak was referred to as 'Shah' by the Muslims and 'Fakir' by the Hindus, the highest honor given in both religions and hence came to be known as 'Nanak Shah Fakir'. - Harinder S. Sikka Producer Written by Samar Sikka



Produced By: Gaurav Sharma Gabbar,Resul Pookutty,Harinder S. Sikka,Samar Sikka,Pooja Verma,
Music: Tuomas Kantelinen A.R. Rahman
Cast:
Arif Zakaria as Bhai Mardana
Puneet Sikka as Bebe Nanaki
Adil Hussain as Rai Bullar
Anurag Arora as Kalu Mehta
Shradha Kaul as Guru Nanak' mother
Mrigendra Konwar as Prince of Jagannath
Trailers:
Nanak Shah Fakir 2018 - Official Trailer


Watch-Free-HD     Download

Details
Name:Nanak Shah Fakir [Punjabi] 1080p HD Itunes DL AVC DD 5.1 Audio ESUBS Team Jio Exclusive
Description:



Quote:

All Exclusives only on JioTorrents.net


Format : MPEG-4
Format profile : Base Media / Version 2
Codec ID : mp42 (mp42/isom)
File size : 4.91 GiB
Duration : 2 h 17 min
Overall bit rate mode : Variable
Overall bit rate : 5 111 kb/s
Movie name : Nanak Shah Fakir
Performer : Unknown
Performer/Sorted by : Unknown
Actor : Arif Zakaria / Puneet Sikka / Adil Hussain / Anurag Arora / Shradha Kaul
Production studio : Gurbani Media Private Limited
Genre : Bollywood
ContentType : Short Film
Description : Nanak Shah Fakir is named after and on the life and teachings of Guru Nanak, the founder of the Sikh

Cover : Yes
AppleStoreCatalogID : 1406061556
GenreID : 4431

Title/Sort : Nanak Shah Fakir
ContentRating : in-movies|U|0|
LongDescription : Nanak Shah Fakir is named after and on the life and teachings of Guru Nanak, the founder of the Sikh faith in India. Born in AD 1469, Guru Nanak  traveled the world to spread the essence of 'Ik Onkar' (there's but One God) as a philosophy, establishing 'Sikhism' as a way of life. Keeping in with the tradition, Guru Nanak has been portrayed through computer graphics, from the back and amidst a ray of light.

Video
ID : 2
Format : AVC
Format/Info : Advanced Video Codec
Format profile : [email protected]
Format settings : CABAC / 5 Ref Frames
Format settings, CABAC : Yes
Format settings, RefFrames : 5 frames
Codec ID : avc1
Codec ID/Info : Advanced Video Coding
Duration : 2 h 17 min
Bit rate : 4 597 kb/s
Width : 1 920 pixels
Height : 804 pixels
Display aspect ratio : 2.40:1
Frame rate mode : Constant
Frame rate : 24.000 FPS
Color space : YUV
Chroma subsampling : 4:2:0
Bit depth : 8 bits
Scan type : Progressive
Bits/(Pixel*Frame) : 0.124
Stream size : 4.41 GiB (90%)
Language : English
Encoded date : UTC 2018-07-21 20:45:07
Tagged date : UTC 2018-07-21 20:50:50
Color range : Limited
Color primaries : BT.709
Transfer characteristics : BT.709
Matrix coefficients : BT.709

Audio #1
ID : 1
Format : AAC
Format/Info : Advanced Audio Codec
Format profile : LC
Codec ID : mp4a-40-2
Duration : 2 h 17 min
Bit rate mode : Variable
Bit rate : 127 kb/s
Maximum bit rate : 198 kb/s
Channel(s) : 2 channels
Channel positions : Front: L R
Sampling rate : 48.0 kHz
Frame rate : 46.875 FPS (1024 SPF)
Compression mode : Lossy
Stream size : 124 MiB (2%)
Language : Hindi
Default : Yes
Alternate group : 1
Encoded date : UTC 2018-07-21 20:45:07
Tagged date : UTC 2018-07-21 20:50:50
Menus : 5

Audio #2
ID : 3
Format : AC-3
Format/Info : Audio Coding 3
Codec ID : ac-3
Duration : 2 h 17 min
Bit rate mode : Constant
Bit rate : 384 kb/s
Channel(s) : 6 channels
Channel positions : Front: L C R, Side: L R, LFE
Sampling rate : 48.0 kHz
Frame rate : 31.250 FPS (1536 SPF)
Bit depth : 16 bits
Compression mode : Lossy
Stream size : 377 MiB (8%)
Language : Hindi
Service kind : Complete Main
Default : No
Alternate group : 1
Encoded date : UTC 2018-07-21 20:45:07
Tagged date : UTC 2018-07-21 20:50:50

Text
ID : 4
Format : Timed Text
Muxing mode : sbtl
Codec ID : tx3g
Duration : 2 h 11 min
Bit rate mode : Variable
Bit rate : 81 b/s
Stream size : 78.2 KiB (0%)
Language : English
Default : Yes
Forced : No
Alternate group : 2
Encoded date : UTC 2018-07-21 20:45:07
Tagged date : UTC 2018-07-21 20:45:13

Menu
ID : 5
Codec ID : text
Duration : 2 h 17 min
Encoded date : UTC 2018-07-21 20:45:08
Tagged date : UTC 2018-07-21 20:45:08
Menu For : 1
00:00:00.000 : 1
00:04:30.875 : 2
00:17:07.333 : 3
00:57:27.874 : 4
01:04:34.832 : 5
01:10:04.248 : 6
01:43:38.248 : 7
01:49:02.706 : 8
01:56:24.414 : 9
02:07:27.497 : 10
Bit rate mode : VBR



 
 
 
 
 
 
 
 
 
 
 
 
 
 
Category:Movies > WEB-HD
Lang:Punjabi
Total Size:4.91 GB
Info Hash:00207243e43afdc32a7b1390860b9fb10c10b927
Added By:yamraaj
Date Added:22-07-2018 08:01:24
Downloads:167

Ratings:Not Yet Rated (Log in to rate it)


Tracker:
http://jiotorrents.net/announce.php?pk=c483ec1e284b61e3431c1bcc14a0e9a09069b48f


File List: 


Comments

No comments still posted

Top
Copyright 2018 DownloadHD -|- Page Generated In 2.156449 secs.
-|- RSS Feed -|- Feed Info