Login
Username:
Password:
[Signup]
[Recover Account]


Browse Torrents

Poll


You must be logged in to view polls



Latest Torrents
Call.The.Midwife.S...
- [Size: 340.85 MB]

Top.Gear.S26E01.RE...
- [Size: 1.41 GB]

Fast.Layne.S01E01....
- [Size: 233.06 MB]

Lethal.Admirer.201...
- [Size: 1.29 GB]

Call.The.Midwife.S...
- [Size: 949.09 MB]


Torrent Details For "Barbie in Princess Power (2015) BluRay 720p x264 [Dual Audio] [Hindi DD 5.1 - Eng] AAC Esub -=!..."

Barbie in Princess Power (2015) BluRay 720p x264 [Dual Audio] [Hindi DD 5.1 - Eng] AAC Esub -=!...

Download this torrent | Magnet Download
Health:
Seeds: 0
Leechers: 15
Completed: 496 
Last Checked: 25-09-2018 04:57:39
External Torrent
Update Stats



Images Host

Poster


iMDB
Imdb Picture Title: Barbie in Princess Power
Year: 2015
Runtime: 73 minutes
Votes: 538
Rating: 5.7/10
Language: English
Country: USA
All Genres: Animation, Family, Fantasy
Plot Outline: One day, after being kissed by a magical butterfly, Kara soon discovers she has amazing super powers allowing her to transform into Super Sparkle, her secret, crime-fighting alter ego who flies around the kingdom ready to save the day! But it's not long before her jealous cousin catches the butterfly and also transforms - this time into Dark Sparkle, her nemesis.


Director: Ezekiel Norton
Writing By: Marsha F. Griffin,
Produced By: Lilian Bravo,Margaret M. Dean,Kylie Ellis,Gabrielle Miles Hill,Shelley Tabbut,David Voss,David Wiebe,Kim Dent Wilder,
Music: Jim Dooley
Cast:
Kelly Sheridan as Kara / Super Sparkle
Britt Irvin as Corinne / Dark Sparkle
Michael Kopsa as Baron Von Ravendale
Rebecca Husain as Madison
Chelsea Miller as Zooey
Kira Tozer as Makalya
Patricia Drake as Queen Karina
Michael Adamthwaite as King Kristoff / Construction Worker
David Kaye as Wes Rivers
Alyssya Swales as Gabby
Trailers:
Barbie In Princess Power


Watch-Free-HD     Download

Details
Name:Barbie in Princess Power (2015) BluRay 720p x264 [Dual Audio] [Hindi DD 5.1 - Eng] AAC Esub -=!...
Description:

Barbie in Princess Power (2015) BluRay 720p x264 [Dual Audio] [Hindi DD 5.1 - Eng] AAC Esub -=!Katyayan!=-


 


-=====================Source Credit=====================-
:::::::::::::::::::> Video ---- Ozlem
:::::::::::::::::::> Audio ---- Org Untouched DD 5.1 640Kbps Hindi By ~Team M2TV



Format                                   : Matroska
Format version                           : Version 4 / Version 2
File size                                : 679 MiB
Duration                                 : 1 h 13 min
Overall bit rate                         : 1 288 kb/s
Movie name                               : Barbie in Princess Power (2015) BluRay 720p x264 [Dual Audio] [Hindi DD 5.1 - Eng] AAC Esub -=!Katyayan!=-
Encoded date                             : UTC 2018-08-17 17:59:09
Writing application                      : mkvmerge v24.0.0 ('Beyond The Pale') 64-bit
Writing library                          : libebml v1.3.6 + libmatroska v1.4.9
Cover                                    : Yes
Attachments                              : Barbie in Princess Power (2015) Cover

Video
ID                                       : 1
Format                                   : AVC
Format/Info                              : Advanced Video Codec
Format profile                           : [email protected]
Format settings                          : CABAC / 5 Ref Frames
Format settings, CABAC                   : Yes
Format settings, RefFrames               : 5 frames
Codec ID                                 : V_MPEG4/ISO/AVC
Duration                                 : 1 h 13 min
Bit rate                                 : 999 kb/s
Width                                    : 1 280 pixels
Height                                   : 720 pixels
Display aspect ratio                     : 16:9
Frame rate mode                          : Constant
Frame rate                               : 23.976 (24000/1001) FPS
Color space                              : YUV
Chroma subsampling                       : 4:2:0
Bit depth                                : 8 bits
Scan type                                : Progressive
Bits/(Pixel*Frame)                       : 0.045
Stream size                              : 527 MiB (78%)
Title                                    : Barbie in Princess Power (2015) BluRay 720p x264 [Dual Audio] [Hindi DD 5.1 - Eng] AAC Esub -=!Katyayan!=-
Writing library                          : x264 core 142 r2431 ac76440
Encoding settings                        : cabac=1 / ref=5 / deblock=1:-1:-1 / analyse=0x3:0x113 / me=umh / subme=9 / psy=1 / psy_rd=1.00:0.15 / mixed_ref=1 / me_range=24 / chroma_me=1 / trellis=2 / 8x8dct=1 / cqm=0 / deadzone=21,11 / fast_pskip=0 / chroma_qp_offset=-3 / threads=24 / lookahead_threads=2 / sliced_threads=0 / nr=0 / decimate=1 / interlaced=0 / bluray_compat=0 / constrained_intra=0 / bframes=3 / b_pyramid=2 / b_adapt=2 / b_bias=0 / direct=3 / weightb=1 / open_gop=0 / weightp=2 / keyint=240 / keyint_min=23 / scenecut=40 / intra_refresh=0 / rc_lookahead=60 / rc=2pass / mbtree=1 / bitrate=999 / ratetol=1.0 / qcomp=0.60 / qpmin=0 / qpmax=69 / qpstep=4 / cplxblur=20.0 / qblur=0.5 / vbv_maxrate=31250 / vbv_bufsize=31250 / nal_hrd=none / filler=0 / ip_ratio=1.40 / aq=1:1.00
Language                                 : English
Default                                  : Yes
Forced                                   : No
Color range                              : Limited
Color primaries                          : BT.709
Matrix coefficients                      : BT.709

Audio #1
ID                                       : 2
Format                                   : AAC
Format/Info                              : Advanced Audio Codec
Format profile                           : LC
Codec ID                                 : A_AAC-2
Duration                                 : 1 h 13 min
Bit rate                                 : 192 kb/s
Channel(s)                               : 6 channels
Channel positions                        : Front: L C R, Side: L R, LFE
Sampling rate                            : 48.0 kHz
Frame rate                               : 46.875 FPS (1024 SPF)
Compression mode                         : Lossy
Stream size                              : 101 MiB (15%)
Title                                    : -=!Katyayan!=-
Language                                 : Hindi
Default                                  : Yes
Forced                                   : Yes

Audio #2
ID                                       : 3
Format                                   : AAC
Format/Info                              : Advanced Audio Codec
Format profile                           : LC
Codec ID                                 : A_AAC-2
Duration                                 : 1 h 13 min
Bit rate                                 : 93.3 kb/s
Channel(s)                               : 2 channels
Channel positions                        : Front: L R
Sampling rate                            : 48.0 kHz
Frame rate                               : 46.875 FPS (1024 SPF)
Compression mode                         : Lossy
Stream size                              : 49.2 MiB (7%)
Title                                    : -=!Katyayan!=-
Language                                 : English
Default                                  : No
Forced                                   : No

Text
ID                                       : 4
Format                                   : UTF-8
Codec ID                                 : S_TEXT/UTF8
Codec ID/Info                            : UTF-8 Plain Text
Duration                                 : 1 h 9 min
Bit rate                                 : 61 b/s
Count of elements                        : 1349
Stream size                              : 31.3 KiB (0%)
Title                                    : -=!Katyayan!=-
Language                                 : English
Default                                  : Yes
Forced                                   : Yes


 

Category:Movies > Hollywood Dub
Lang:Hindi
Total Size:679.81 MB
Info Hash:d8fe94d7e1065f51d77b18712236e9353ff5edf3
Added By:Shrawankk
Date Added:17-08-2018 19:25:39
Downloads:202

Ratings:Not Yet Rated (Log in to rate it)


Tracker:
http://tracker.dler.org:6969/announce

This Torrent also has backup trackers
URLSeedersLeechersCompleted
http://tracker.dler.org:6969/announce000
http://5.79.83.193:2710/announce000
http://tracker.mg64.net:6881/announce01164
http://mgtracker.org:6969/announce03166
http://182.176.139.129:6969/announce000


File List: 


Comments

No comments still posted

Top
Copyright 2018 DownloadHD -|- Page Generated In 0.605563 secs.
-|- RSS Feed -|- Feed Info