Login
Username:
Password:
[Signup]
[Recover Account]


Browse Torrents

Poll


You must be logged in to view polls



Latest Torrents
The.Simpsons.S30E1...
- [Size: 544.03 MB]

The.Simpsons.S30E1...
- [Size: 301.38 MB]

Family.Guy.S17E13....
- [Size: 203.86 MB]

Bobs.Burgers.S09E1...
- [Size: 217.96 MB]

Pitching.In.S01E02...
- [Size: 430.51 MB]


Torrent Details For "Miami Vice.2006.BluRay.720p.x264.{Dual.Audio}.[Hindi.Org-English].-.DownloadHD"

Miami Vice.2006.BluRay.720p.x264.{Dual.Audio}.[Hindi.Org-English].-.DownloadHD

Download this torrent | Magnet Download
Health:
Seeds: 0
Leechers: 8
Completed: 798 
Last Checked: 06-02-2019 23:36:29
External Torrent
Update Stats



Images Host

Poster


iMDB
Title: Miami Vice
Year: 2006
Runtime: 134 minutes
Language: English, Spanish
All Genres: Action, Crime, Thriller
Tagline: No Law
Director: Michael Mann
Writing By: Michael Mann,Anthony Yerkovich,
Produced By: Sarah Bradshaw,Pieter Jan Brugge,Bryan H. Carroll,Gusmano Cesaretti,Michael Mann,Wayne Morris,Lorena Reyes,Michael Waxman,Anthony Yerkovich,
Music: John Murphy
Cast:
Colin Farrell as Sonny Crockett
Jamie Foxx as Ricardo Tubbs
Li Gong as Isabella
Naomie Harris as Trudy Joplin
CiarĂ¡n Hinds as FBI Agent Fujima
Justin Theroux as Detective Larry Zito
Barry Shabaka Henley as Castillo
Luis Tosar as Montoya
John Ortiz as Jose Yero
Elizabeth Rodriguez as Gina Calabrese
Trailers:
Miami Vice (2006)
Miami Vice (2006)


Watch-Free-HD     Download

Details
Name:Miami Vice.2006.BluRay.720p.x264.{Dual.Audio}.[Hindi.Org-English].-.DownloadHD
Description:
Format                      : Matroska
Format version              : Version 4 / Version 2
File size                   : 1.42 GiB
Duration                    : 2 h 12 min
Overall bit rate            : 1 534 kb/s
Movie name                  :  ~ Ranvijay

Video
ID                          : 1
Format                      : AVC
Format/Info                 : Advanced Video Codec
Format profile              : [email protected]
Format settings             : CABAC / 8 Ref Frames
Format settings, CABAC      : Yes
Format settings, ReFrames   : 8 frames
Codec ID                    : V_MPEG4/ISO/AVC
Duration                    : 2 h 12 min
Bit rate                    : 1 200 kb/s
Width                       : 1 280 pixels
Height                      : 534 pixels
Display aspect ratio        : 2.40:1
Frame rate mode             : Constant
Frame rate                  : 23.976 (24000/1001) FPS

Audio #1
ID                          : 2
Format                      : AAC
Format/Info                 : Advanced Audio Codec
Format profile              : LC
Codec ID                    : A_AAC-2
Duration                    : 2 h 12 min
Bit rate                    : 160 kb/s
Channel(s)                  : 2 channels
Channel positions           : Front: L R
Sampling rate               : 48.0 kHz
Frame rate                  : 46.875 FPS (1024 SPF)
Compression mode            : Lossy
Delay relative to video     : 1 s 479 ms
Stream size                 : 151 MiB (10%)
Title                       : Stereo
Language                    : Hindi

Audio #2
ID                          : 3
Format                      : AAC
Format/Info                 : Advanced Audio Codec
Format profile              : LC
Codec ID                    : A_AAC-2
Duration                    : 2 h 12 min
Bit rate                    : 160 kb/s
Channel(s)                  : 2 channels
Channel positions           : Front: L R
Sampling rate               : 48.0 kHz
Frame rate                  : 46.875 FPS (1024 SPF)
Compression mode            : Lossy
Delay relative to video     : -21 ms
Stream size                 : 151 MiB (10%)
Title                       : Stereo
Language                    : English

     
Category:Movies > Hollywood Dub
Lang:Hindi
Total Size:1.42 GB
Info Hash:67dfcf8ce193ed666674358a5d7d3e8464601a0b
Added By:Download
Date Added:24-08-2018 11:00:44
Downloads:299

Ratings:Not Yet Rated (Log in to rate it)


Tracker:
udp://tracker.coppersurfer.tk:6969/announce


File List: 


Comments

<< Previous      Next >>
1 - 1

[Report] Posted: 30-08-2018 at 07:58:05
wiki



Thanks For Share
:P

1 - 1
<< Previous      Next >>


Top
Copyright 2018 DownloadHD -|- Page Generated In 0.829855 secs.
-|- RSS Feed -|- Feed Info