Login
Username:
Password:
[Signup]
[Recover Account]


Browse Torrents

Poll


You must be logged in to view polls



Latest Torrents
Traitors.S01E01.HD...
- [Size: 211.67 MB]

Endeavour.S06E02.H...
- [Size: 408.71 MB]

Top.Gear.S26E01.HD...
- [Size: 473.65 MB]

Baptiste.S01E01.HD...
- [Size: 274.53 MB]

Kursk.2019.HC.HDRi...
- [Size: 1.05 GB]


Torrent Details For "Soldier.1998.BluRay.720p.x264.{Dual.Audio}.[Hindi.Org-English].-.DownloadHD"

Soldier.1998.BluRay.720p.x264.{Dual.Audio}.[Hindi.Org-English].-.DownloadHD

Download this torrent | Magnet Download
Health:
Seeds: 0
Leechers: 3
Completed: 513 
Last Checked: 21-12-2018 02:52:05
External Torrent
Update Stats



Images Host

Poster


iMDB
Imdb Picture Title: Soldier
Year: 1998
Runtime: 99 minutes
Votes: 46515
Rating: 6.0/10
Language: English
Country: UK, USA
All Genres: Action, Drama, Sci-Fi
Plot Outline: An engineered space soldier is deemed obsolete and dumped on a waste planet where he is reluctantly taken in by a community of defenseless refugees.
Tagline: Left for dead on a remote planet for obsolete machines and people, a fallen hero has one last battle to fight
Director: Paul W.S. Anderson
Writing By: David Webb Peoples,
Produced By: Jeremy Bolt,Susan Ekins,Fred Fontana,R.J. Louis,James G. Robinson,Jerry Weintraub,
Music: Joel McNeely
Cast:
Kurt Russell as Todd 3465
Jason Scott Lee as Caine 607
Jason Isaacs as Colonel Mekum
Connie Nielsen as Sandra
Sean Pertwee as Mace
Jared Thorne as Nathan
Taylor Thorne as Nathan
Mark Bringelson as Rubrick
Gary Busey as Church
K.K. Dodds as Sloan
Trailers:
Soldier


Watch-Free-HD     Download

Details
Name:Soldier.1998.BluRay.720p.x264.{Dual.Audio}.[Hindi.Org-English].-.DownloadHD
Description:
Format                      : Matroska
Format version              : Version 4 / Version 2
File size                   : 1.05 GiB
Duration                    : 1 h 38 min
Overall bit rate            : 1 523 kb/s
Movie name                  : ~Hammer~

Video
ID                          : 1
Format                      : AVC
Format/Info                 : Advanced Video Codec
Format profile              : [email protected]
Format settings             : CABAC / 8 Ref Frames
Format settings, CABAC      : Yes
Format settings, ReFrames   : 8 frames
Codec ID                    : V_MPEG4/ISO/AVC
Duration                    : 1 h 38 min
Bit rate                    : 1 200 kb/s
Width                       : 1 280 pixels
Height                      : 532 pixels
Display aspect ratio        : 2.40:1
Frame rate mode             : Constant
Frame rate                  : 23.976 (24000/1001) FPS

Audio #1
ID                          : 2
Format                      : AAC
Format/Info                 : Advanced Audio Codec
Format profile              : LC
Codec ID                    : A_AAC-2
Duration                    : 1 h 38 min
Bit rate                    : 160 kb/s
Channel(s)                  : 2 channels
Channel positions           : Front: L R
Sampling rate               : 48.0 kHz
Frame rate                  : 46.875 FPS (1024 SPF)
Compression mode            : Lossy
Delay relative to video     : -21 ms
Stream size                 : 113 MiB (11%)
Title                       : Stereo
Language                    : Hindi

Audio #2
ID                          : 3
Format                      : AAC
Format/Info                 : Advanced Audio Codec
Format profile              : LC
Codec ID                    : A_AAC-2
Duration                    : 1 h 38 min
Bit rate                    : 160 kb/s
Channel(s)                  : 2 channels
Channel positions           : Front: L R
Sampling rate               : 48.0 kHz
Frame rate                  : 46.875 FPS (1024 SPF)
Compression mode            : Lossy
Delay relative to video     : -21 ms
Stream size                 : 113 MiB (11%)
Title                       : Stereo
Language                    : English

 
Category:Movies > Hollywood Dub
Lang:Hindi
Total Size:1.05 GB
Info Hash:f9608b2544260fd0d3c2b6dd867778c1eed36bf5
Added By:Download
Date Added:02-09-2018 12:29:28
Downloads:274

Ratings:Not Yet Rated (Log in to rate it)


Tracker:
udp://tracker.coppersurfer.tk:6969/announce


File List: 


Comments

No comments still posted

Top
Copyright 2018 DownloadHD -|- Page Generated In 0.214091 secs.
-|- RSS Feed -|- Feed Info