Login
Username:
Password:
[Signup]
[Recover Account]


Browse Torrents

Poll


You must be logged in to view polls



Latest Torrents
Kursk.2019.HC.HDRi...
- [Size: 1.05 GB]

Evil.Lives.Here.S0...
- [Size: 220.93 MB]

Call.The.Midwife.S...
- [Size: 339.36 MB]

Call.The.Midwife.S...
- [Size: 340.85 MB]

Top.Gear.S26E01.RE...
- [Size: 1.41 GB]


Torrent Details For "Tamanchey 2014 Hindi 720p WEB-DL x264 AAC { TaRa }.mkv"

Tamanchey 2014 Hindi 720p WEB-DL x264 AAC { TaRa }.mkv

Download this torrent | Magnet Download
Health:
Seeds: 0
Leechers: 13
Completed: 1,504 
Last Checked: 17-01-2019 13:06:02
External Torrent
Update Stats



Images Host

Poster


iMDB
Imdb Picture Title: Tamanchey: Pyar Mein Dil Pe Maar De Goli
Year: 2014
Runtime: 113 minutes
Votes: 224
Rating: 4.7/10
Language: Hindi
Country: India
All Genres: Crime, Romance
Plot Outline: An aggressive, passionate acidic love story between two criminals whilst on the run from the law.
Director: Navneet Behal

Produced By: Maitrey Bajpai,Aroona Bhat,Suryaveer Singh Bhullar,Mohammad Mubashshir,Amit Rastogi,Ajeet Singh,Navmeet Singh,
Music: Pritesh Mehta Arko Pravo Mukherjee Krsna Solo
Plot:

An aggressive, passionate acidic love story between two criminals whilst on the run from the law.

- Written by s-raghav080
Cast:
Nikhil Dwivedi as Munna
Richa Chadha as Babu - Bindiya Thakur
Damandeep Singh as Rana
Vijay Pande as Constable Chawbeji
Talib Mehdi as Constable Yadav
Tushar Phulke as Constable Pandey Ji
Mahesh Gupta as Constable Ram Bharose
Prasad Labhe as Champi Wala
Fareed Khan as Astrologer
Raj Chauhan as Bar Waiter


Watch-Free-HD     Download

Details
Name:Tamanchey 2014 Hindi 720p WEB-DL x264 AAC { TaRa }.mkv
Description:

Tamanchey 2014 Hindi 720p WEB-DL x264 AAC { TaRa }.mkv


===================================================================
General
Complete name               : Tamanchey 2014 Hindi 720p WEB-DL x264 AAC { TaRa }.mkv
Format                      : Matroska
Format version              : Version 4 / Version 2
File size                   : 959 MiB
Duration                    : 1 h 52 min
Overall bit rate            : 1 197 kb/s
===================================================================
Video
ID                          : 1
Format                      : AVC
Format/Info                 : Advanced Video Codec
Format profile              : [email protected]
Format settings             : CABAC / 5 Ref Frames
Format settings, CABAC      : Yes
Format settings, ReFrames   : 5 frames
Codec ID                    : V_MPEG4/ISO/AVC
Duration                    : 1 h 52 min
Bit rate                    : 1 069 kb/s
Width                       : 1 280 pixels
Height                      : 544 pixels
Display aspect ratio        : 2.35:1
Frame rate mode             : Constant
Frame rate                  : 24.000 FPS
Color space                 : YUV
Chroma subsampling          : 4:2:0
Bit depth                   : 8 bits
Scan type                   : Progressive
Bits/(Pixel*Frame)          : 0.064
Stream size                 : 857 MiB (89%)
Title                       : .....:::::: TaRa ::::::.....
Language                    : Hindi
Default                     : Yes
Forced                      : No
===================================================================
Audio
ID                          : 2
Format                      : AAC LC
Format/Info                 : Advanced Audio Codec Low Complexity
Codec ID                    : A_AAC-2
Duration                    : 1 h 52 min
Bit rate                    : 126 kb/s
Channel(s)                  : 2 channels
Channel layout              : L R
Sampling rate               : 44.1 kHz
Frame rate                  : 43.066 FPS (1024 SPF)
Compression mode            : Lossy
Stream size                 : 101 MiB (10%)
Title                       : .....:::::: TaRa ::::::.....
Language                    : Hindi
Default                     : Yes
Forced                      : No
===================================================================








































 



Category:Movies > Bollywood
Lang:Hindi
Total Size:960.23 MB
Info Hash:986244a4323d92f72506aced0f76c86c0202780e
Added By:SkTaRa
Date Added:03-09-2018 18:35:37
Downloads:553

Ratings:Not Yet Rated (Log in to rate it)


Tracker:
udp://tracker.coppersurfer.tk:6969/announce


File List: 


Comments

No comments still posted

Top
Copyright 2018 DownloadHD -|- Page Generated In 8.150763 secs.
-|- RSS Feed -|- Feed Info