Login
Username:
Password:
[Signup]
[Recover Account]


Browse Torrents

Poll


You must be logged in to view polls



Latest Torrents
From.Straight.as.t...
- [Size: 896.22 MB]

Cheater 2016 Marat...
- [Size: 2.59 GB]

Live.PD.S03E45.HDT...
- [Size: 1.75 GB]

Overlord.2018.INTE...
- [Size: 18.67 GB]

Crucible.of.the.Va...
- [Size: 1.33 GB]


Torrent Details For "Lake Placid Legacy.2018.720p.WEB-DL.x264.AAC.-.DownloadHD"

Lake Placid Legacy.2018.720p.WEB-DL.x264.AAC.-.DownloadHD

Download this torrent | Magnet Download
Health:
Seeds: 0
Leechers: 8
Completed:
Last Checked: 01-02-2019 03:20:27
External Torrent
Update Stats



Images Host

Poster
No poster


Watch-Free-HD     Download

Details
Name:Lake Placid Legacy.2018.720p.WEB-DL.x264.AAC.-.DownloadHD
Description:




       

ormat                                   : Matroska
Format version                           : Version 4 / Version 2
File size                                : 700 MiB
Duration                                 : 1 h 33 min
Overall bit rate                         : 1 050 kb/s
Movie name                               : Lake Placid Legacy.2018.720p.WEB-DL.x264.AAC.-.DownloadHD

Video
ID                                       : 1
Format                                   : AVC
Format/Info                              : Advanced Video Codec
Format profile                           : [email protected]
Format settings                          : CABAC / 4 Ref Frames
Format settings, CABAC                   : Yes
Format settings, RefFrames               : 4 frames
Codec ID                                 : V_MPEG4/ISO/AVC
Duration                                 : 1 h 33 min
Bit rate                                 : 1 000 kb/s
Width                                    : 1 280 pixels
Height                                   : 680 pixels
Display aspect ratio                     : 1.882
Frame rate mode                          : Constant
Frame rate                               : 23.976 (24000/1001) FPS

Audio
ID                                       : 2
Format                                   : AAC
Format/Info                              : Advanced Audio Codec
Format profile                           : HE-AACv2 / HE-AAC / LC
Format settings                          : NBC
Codec ID                                 : A_AAC-2
Duration                                 : 1 h 33 min
Bit rate                                 : 59.1 kb/s
Channel(s)                               : 6 channels
Channel(s)_Original                      : 2 channels /  channel0 /  channel0
Channel positions                        : Front: L R /  /
Sampling rate                            : 48.0 kHz / 48.0 kHz / 24.0 kHz
Frame rate                               : 23.438 FPS (1024 SPF)
Compression mode                         : Lossy
Delay relative to video                  : 31 ms
Stream size                              : 39.4 MiB (6%)
Title                                    : seflv.net
Language                                 : English
Default                                  : Yes
Text
ID                                       : 3
Format                                   : UTF-8
Codec ID                                 : S_TEXT/UTF8
Codec ID/Info                            : UTF-8 Plain Text
Duration                                 : 1 h 23 min
Bit rate                                 : 45 b/s
Count of elements                        : 1104
Stream size                              : 28.2 KiB (0%)
Title                                    : seflv.net
Language                                 : English


For more Exclusive & Quality Stuff Visit :: DownloadHD

 

Category:Movies > HDRips
Lang:English  English
Total Size:708.04 MB
Info Hash:b70b92486f814cdd774be6c51fe4dcb45600ffc3
Added By:Download
Date Added:04-09-2018 09:21:04
Downloads:42

Ratings:Not Yet Rated (Log in to rate it)


Tracker:
udp://tracker.coppersurfer.tk:6969/announce


File List: 


Comments

No comments still posted

Top
Copyright 2018 DownloadHD -|- Page Generated In 1.129422 secs.
-|- RSS Feed -|- Feed Info