Login
Username:
Password:
[Signup]
[Recover Account]


Browse Torrents

Poll


You must be logged in to view polls



Latest Torrents
What Men Want (201...
- [Size: 851.39 MB]

What Men Want 2019...
- [Size: 680.15 MB]

Goosebumps 2 Haun...
- [Size: 797.62 MB]

Love.After.Lockup....
- [Size: 389.85 MB]

Gotham.S05E06.13.S...
- [Size: 1.08 GB]


Torrent Details For "The Big Take.2018.1080p.WEB-DL.x264.AAC.5.1.-.DownloadHD"

The Big Take.2018.1080p.WEB-DL.x264.AAC.5.1.-.DownloadHD

Download this torrent | Magnet Download
Health:
Seeds: 0
Leechers: 19
Completed:
Last Checked: 28-12-2018 22:18:52
External Torrent
Update Stats



Images Host

Poster
No poster


Watch-Free-HD     Download

Details
Name:The Big Take.2018.1080p.WEB-DL.x264.AAC.5.1.-.DownloadHD
Description:




       

Format                      : Matroska
Format version              : Version 4 / Version 2
File size                   : 1.51 GiB
Duration                    : 1 h 18 min
Overall bit rate            : 2 769 kb/s
Movie name                  : The Big Take.2018.1080p.WEB-DL.x264.AAC.5.1.-.DownloadHD


Video
ID                          : 1
Format                      : AVC
Format/Info                 : Advanced Video Codec
Format profile              : [email protected]
Format settings             : CABAC / 4 Ref Frames
Format settings, CABAC      : Yes
Format settings, ReFrames   : 4 frames
Codec ID                    : V_MPEG4/ISO/AVC
Duration                    : 1 h 18 min
Bit rate                    : 2 500 kb/s
Width                       : 1 912 pixels
Height                      : 784 pixels
Display aspect ratio        : 2.40:1
Frame rate mode             : Constant
Frame rate                  : 23.976 (24000/1001) FPS


Audio
ID                          : 2
Format                      : AAC
Format/Info                 : Advanced Audio Codec
Format profile              : LC
Codec ID                    : A_AAC-2
Duration                    : 1 h 18 min
Bit rate                    : 305 kb/s
Channel(s)                  : 6 channels
Channel positions           : Front: L C R, Side: L R, LFE
Sampling rate               : 48.0 kHz
Frame rate                  : 46.875 FPS (1024 SPF)
Compression mode            : Lossy
Delay relative to video     : 9 ms
Stream size                 : 171 MiB (11%)
Title                       : seflv.net


Text
ID                          : 3
Format                      : UTF-8
Codec ID                    : S_TEXT/UTF8
Codec ID/Info               : UTF-8 Plain Text
Duration                    : 1 h 15 min
Bit rate                    : 57 b/s
Count of elements           : 969
Stream size                 : 31.8 KiB (0%)
Title                       : seflv.net
Language                    : English


For more Exclusive & Quality Stuff Visit :: DownloadHD

 


Category:Movies > HDRips
Lang:English  English
Total Size:1.53 GB
Info Hash:f1047f23c9cdd30f51d40602f455902a80563345
Added By:Download
Date Added:05-09-2018 07:04:05
Downloads:46

Ratings:Not Yet Rated (Log in to rate it)


Tracker:
udp://tracker.coppersurfer.tk:6969/announce


File List: 


Comments

No comments still posted

Top
Copyright 2018 DownloadHD -|- Page Generated In 0.931608 secs.
-|- RSS Feed -|- Feed Info