Login
Username:
Password:
[Signup]
[Recover Account]


Browse Torrents

Poll


You must be logged in to view polls



Latest Torrents
The.Simpsons.S30E1...
- [Size: 544.03 MB]

The.Simpsons.S30E1...
- [Size: 301.38 MB]

Family.Guy.S17E13....
- [Size: 203.86 MB]

Bobs.Burgers.S09E1...
- [Size: 217.96 MB]

Pitching.In.S01E02...
- [Size: 430.51 MB]


Torrent Details For "Hope Aur Hum 2018 x264 720p HD Esub Hindi GOPISAHI"

Hope Aur Hum 2018 x264 720p HD Esub Hindi GOPISAHI

Download this torrent | Magnet Download
Health:
Seeds: 0
Leechers: 23
Completed: 18 
Last Checked: 15-02-2019 19:31:17
External Torrent
Update Stats



Images Host

Poster
No poster


Watch-Free-HD     Download

Details
Name:Hope Aur Hum 2018 x264 720p HD Esub Hindi GOPISAHI
Description:
 http://www.gopisahi.pw/

Format                         : Matroska
Format version                 : Version 4 / Version 2
File size                      : 472 MiB
Duration                       : 1 h 34 min
Overall bit rate               : 697 kb/s
Movie name                     : Hope Aur Hum 2018 GOPISAHI

Video
Format                         : AVC
Format/Info                    : Advanced Video Codec
Codec ID                       : V_MPEG4/ISO/AVC
Duration                       : 1 h 34 min
Bit rate                       : 599 kb/s
Width                          : 1 280 pixels
Height                         : 480 pixels
Display aspect ratio           : 2.667
Frame rate mode                : Constant
Frame rate                     : 24.000 FPS
Color space                    : YUV
Chroma subsampling             : 4:2:0
Bit depth                      : 8 bits
Scan type                      : Progressive
Bits/(Pixel*Frame)             : 0.041
Stream size                    : 406 MiB (86%)
Title                          : GOPISAHI
Writing library                : x264 core 155 r2901 7d0ff22

Audio
Format                         : AAC
Format/Info                    : Advanced Audio Codec
Duration                       : 1 h 34 min
Bit rate                       : 96.0 kb/s
Channel(s)                     : 2 channels
Channel positions              : Front: L R
Sampling rate                  : 48.0 kHz
Frame rate                     : 46.875 FPS (1024 SPF)
Compression mode               : Lossy
Delay relative to video        : -62 ms
Stream size                    : 65.0 MiB (14%)
Title                          : GOPISAHI
Language                       : Hindi

Text
Language                       : English


Category:Movies > Bollywood
Lang:Hindi
Total Size:472.18 MB
Info Hash:abd7bc31bd9fae581ba9e8e673d21332c88936dd
Added By:gopisahi
Date Added:05-09-2018 08:44:52
Downloads:549

Ratings:Not Yet Rated (Log in to rate it)


Tracker:
udp://tracker.torrent.eu.org:451/announce

This Torrent also has backup trackers
URLSeedersLeechersCompleted
http://retracker.spb.ru:80/announce000
http://t.nyaatracker.com:80/announce020
http://retracker.mgts.by:80/announce0118
http://tracker2.itzmx.com:6961/announce010


File List: 


Comments

No comments still posted

Top
Copyright 2018 DownloadHD -|- Page Generated In 0.897140 secs.
-|- RSS Feed -|- Feed Info