Login
Username:
Password:
[Signup]
[Recover Account]


Browse Torrents

Poll


You must be logged in to view polls



Latest Torrents
Crucible.of.the.Va...
- [Size: 1.39 GB]

Real.Time.With.Bil...
- [Size: 1,014.34 MB]

Chaamp 2017 1080p ...
- [Size: 3.93 GB]

Journal.64.2018.DA...
- [Size: 8.74 GB]

K.G.F Chapter 1 20...
- [Size: 883.60 MB]


Torrent Details For "The Steam Engines of Oz.2018.1080p.AMZN.WEB-DL.x264.AAC.5.1.-.DownloadHD"

The Steam Engines of Oz.2018.1080p.AMZN.WEB-DL.x264.AAC.5.1.-.DownloadHD

Download this torrent | Magnet Download
Health:
Seeds: 0
Leechers: 4
Completed:
Last Checked: 08-12-2018 08:48:25
External Torrent
Update Stats



Images Host

Poster
No poster


Watch-Free-HD     Download

Details
Name:The Steam Engines of Oz.2018.1080p.AMZN.WEB-DL.x264.AAC.5.1.-.DownloadHD
Description:




       

ormat                                   : Matroska
Format version                           : Version 4 / Version 2
File size                                : 1.55 GiB
Duration                                 : 1 h 19 min
Overall bit rate                         : 2 790 kb/s
Movie name                               : The Steam Engines of Oz.2018.1080p.AMZN.WEB-DL.x264.AAC.5.1.-.DownloadHD


Video
ID                                       : 1
Format                                   : AVC
Format/Info                              : Advanced Video Codec
Format profile                           : [email protected]
Format settings                          : CABAC / 4 Ref Frames
Format settings, CABAC                   : Yes
Format settings, RefFrames               : 4 frames
Codec ID                                 : V_MPEG4/ISO/AVC
Duration                                 : 1 h 19 min
Bit rate                                 : 2 500 kb/s
Width                                    : 1 920 pixels
Height                                   : 1 080 pixels
Display aspect ratio                     : 16:9
Frame rate mode                          : Constant
Frame rate                               : 23.976 (24000/1001) FPS
Color space                              : YUV
Chroma subsampling                       : 4:2:0
Bit depth                                : 8 bits
Scan type                                : Progressive

Audio
ID                                       : 2
Format                                   : AAC
Format/Info                              : Advanced Audio Codec
Format profile                           : LC
Codec ID                                 : A_AAC-2
Duration                                 : 1 h 19 min
Bit rate                                 : 328 kb/s
Channel(s)                               : 6 channels
Channel positions                        : Front: L C R, Side: L R, LFE
Sampling rate                            : 48.0 kHz
Frame rate                               : 46.875 FPS (1024 SPF)
Compression mode                         : Lossy
Delay relative to video                  : 9 ms
Stream size                              : 186 MiB (12%)
Title                                    : seflv.net
Language                                 : English

Text #1
ID                                       : 3
Format                                   : UTF-8
Codec ID                                 : S_TEXT/UTF8
Codec ID/Info                            : UTF-8 Plain Text
Duration                                 : 1 h 19 min
Bit rate                                 : 47 b/s
Count of elements                        : 1052
Stream size                              : 27.7 KiB (0%)
Title                                    : seflv.net
Language                                 : English

For more Exclusive & Quality Stuff Visit :: DownloadHD

 


Category:Movies > HDRips
Lang:English  English
Total Size:1.56 GB
Info Hash:50b2dad9f79f26cf4321928d778e0fa0a7ca0f64
Added By:Download
Date Added:05-09-2018 16:37:02
Downloads:53

Ratings:Not Yet Rated (Log in to rate it)


Tracker:
udp://tracker.coppersurfer.tk:6969/announce


File List: 


Comments

No comments still posted

Top
Copyright 2018 DownloadHD -|- Page Generated In 0.795490 secs.
-|- RSS Feed -|- Feed Info