Login
Username:
Password:
[Signup]
[Recover Account]


Browse Torrents

Poll


You must be logged in to view polls



Latest Torrents
Windy.City.Rehab.S...
- [Size: 354.87 MB]

Bobs.Burgers.S09E1...
- [Size: 347.84 MB]

Spider-Man.Into th...
- [Size: 2.26 GB]

The.Simpsons.S30E1...
- [Size: 544.03 MB]

The.Simpsons.S30E1...
- [Size: 301.38 MB]


Torrent Details For "Mama.2013.BluRay.720p.x264.{Dual.Audio}.[Hindi.Org-English].-.DownloadHD"

Mama.2013.BluRay.720p.x264.{Dual.Audio}.[Hindi.Org-English].-.DownloadHD

Download this torrent | Magnet Download
Health:
Seeds: 2
Leechers: 0
Completed: 27 
Last Checked: 17-02-2019 02:32:41
External Torrent
Update Stats



Images Host

Poster


iMDB
Imdb Picture Title: Mama
Year: 2013
Runtime: 100 minutes
Votes: 142778
Rating: 6.2/10
Language: English
Country: Canada, Spain
All Genres: Horror, Thriller
Plot Outline: A young couple take in their two nieces only to suspect that a foreboding evil has latched itself to their family.
Tagline: A mother's love is forever.
Director: Andrés Muschietti
Writing By: Andrés Muschietti,Barbara Muschietti,Neil Cross,Andrés Muschietti,Barbara Muschietti,
Produced By: J. Miles Dale,Guillermo del Toro,Ingrid Fernández de Castro,Cristina Lera Gracia,Barbara Muschietti,
Music: Fernando Velázquez
Plot:

The senior partner of an investment brokerage, Jeffrey Desange, has a breakdown due to a financial collapse and kills several co-workers and his estranged wife. He then kidnaps his two young daughters, Victoria 3 and Lilly just 1. He drives his car recklessly through a winding snow covered road. He loses control of his car and drives off an embankment. He finds an abandoned and isolated cabin where he plans to kill his daughters, but the children are saved by a dark ghostly image. After five years of searching and depleting his savings, Jeffrey's twin brother, Lucas, finds the children that were raised without social interaction and claim that they have been raised by 'Mama'. Lucas disputes the custody with the children's Great Aunt but Dr. Dreyfuss, who is working with the girls, helps Lucas get custody of the girls so that he can still have access to them. Lucas, his girlfriend Annabel, Victoria and Lilly move into a house provided by the institute that Dr. Dreyfuss works for. Lucas and Annabel soon find out that the girls have brought Mama with them and their lives are in grave danger.

- Written by Stephanie Carter

When Jeffrey Desange the senior partner of an investment company has a mental breakdown and kills several of his co workers and his wife he takes his two daughters one year old lily and three year old Victoria into a cabin in the woods and is about to kill them when he is grabbed by an unseen figure and lily and Victoria are left in the woods all alone and then 5 years later Victoria and lily now in an isolated area are now In the care of their aunt an single try to live normal lives but strange events happen and they are left to wonder were Victoria and lily really in the woods or did something follow them?

- Written by devint-16816

A young couple take in their two nieces only to suspect that a foreboding evil has latched itself to their family.

- Written by Noah Orent
Cast:
Jessica Chastain as Annabel
Nikolaj Coster-Waldau as Lucas / Jeffrey
Megan Charpentier as Victoria
Isabelle Nélisse as Lilly
Daniel Kash as Dr. Dreyfuss
Javier Botet as Mama
Jane Moffat as Jean Podolski / Mama (Voice)
Morgan McGarry as Young Victoria
David Fox as Burnsie
Dominic Cuzzocrea as Ron
Trailers:
U.S. Version -- #1
U.S. Version #2


Watch-Free-HD     Download

Details
Name:Mama.2013.BluRay.720p.x264.{Dual.Audio}.[Hindi.Org-English].-.DownloadHD
Description:
Format                      : Matroska
Format version              : Version 4 / Version 2
File size                   : 1.06 GiB
Duration                    : 1 h 40 min
Overall bit rate            : 1 523 kb/s
Movie name                  : ~Hammer~

Video
ID                          : 1
Format                      : AVC
Format/Info                 : Advanced Video Codec
Format profile              : [email protected]
Format settings             : CABAC / 8 Ref Frames
Format settings, CABAC      : Yes
Format settings, ReFrames   : 8 frames
Codec ID                    : V_MPEG4/ISO/AVC
Duration                    : 1 h 40 min
Bit rate                    : 1 200 kb/s
Width                       : 1 280 pixels
Height                      : 696 pixels
Display aspect ratio        : 1.85:1
Frame rate mode             : Constant
Frame rate                  : 23.976 (24000/1001) FPS

Audio #1
ID                          : 2
Format                      : AAC
Format/Info                 : Advanced Audio Codec
Format profile              : LC
Codec ID                    : A_AAC-2
Duration                    : 1 h 40 min
Bit rate                    : 160 kb/s
Channel(s)                  : 2 channels
Channel positions           : Front: L R
Sampling rate               : 48.0 kHz
Frame rate                  : 46.875 FPS (1024 SPF)
Compression mode            : Lossy
Delay relative to video     : -21 ms
Stream size                 : 115 MiB (11%)
Title                       : Stereo
Language                    : Hindi

Audio #2
ID                          : 3
Format                      : AAC
Format/Info                 : Advanced Audio Codec
Format profile              : LC
Codec ID                    : A_AAC-2
Duration                    : 1 h 40 min
Bit rate                    : 160 kb/s
Channel(s)                  : 2 channels
Channel positions           : Front: L R
Sampling rate               : 48.0 kHz
Frame rate                  : 46.875 FPS (1024 SPF)
Compression mode            : Lossy
Delay relative to video     : -21 ms
Stream size                 : 115 MiB (11%)
Title                       : Stereo
Language                    : English

 
Category:Movies > Hollywood Dub
Lang:Hindi
Total Size:1.06 GB
Info Hash:669cb865fc7d5f8f87cb3e4b8d35c6b163062ebc
Added By:Download
Date Added:05-09-2018 18:02:14
Downloads:171

Ratings:Not Yet Rated (Log in to rate it)


Tracker:
udp://tracker.coppersurfer.tk:6969/announce


File List: 


Comments

No comments still posted

Top
Copyright 2018 DownloadHD -|- Page Generated In 0.218704 secs.
-|- RSS Feed -|- Feed Info