Login
Username:
Password:
[Signup]
[Recover Account]


Browse Torrents

Poll


You must be logged in to view polls



Latest Torrents
From.Straight.as.t...
- [Size: 896.22 MB]

Cheater 2016 Marat...
- [Size: 2.59 GB]

Live.PD.S03E45.HDT...
- [Size: 1.75 GB]

Overlord.2018.INTE...
- [Size: 18.67 GB]

Crucible.of.the.Va...
- [Size: 1.33 GB]


Torrent Details For "Kill.The.Messenger.2014.BluRay.(400mb).x264.{Dual.Audio}.[Hindi.Org-English].-.DownloadHD"

Kill.The.Messenger.2014.BluRay.(400mb).x264.{Dual.Audio}.[Hindi.Org-English].-.DownloadHD

Download this torrent | Magnet Download
Health:
Seeds: 2
Leechers: 0
Completed:
Last Checked: 14-02-2019 03:37:52
External Torrent
Update Stats



Images Host

Poster


iMDB
Imdb Picture Title: Kill the Messenger
Year: 2014
Runtime: 112 minutes
Votes: 38075
Rating: 7.0/10
Language: English
Country: USA
All Genres: Biography, Crime, Drama, Mystery, Thriller
Plot Outline: Based on the true story of journalist Gary Webb. The film takes place in the mid-1990s, when Webb uncovered the CIA's past role in importing huge amounts of cocaine into the U.S. that was ...
Tagline: Based on the remarkable true story of Pulitzer Prize-winning journalist Gary Webb
Director: Michael Cuesta
Writing By: Peter Landesman,Gary Webb,Nick Schou,
Produced By: Pamela Abdy,Michael Bederman,Naomi Despres,Don Handfield,Peter Landesman,Jeremy Renner,Scott Stuber,
Music: Nathan Johnson
Cast:
Jeremy Renner as Gary Webb
Robert Patrick as Ronald J. Quail
Jena Sims as Quail's Girlfriend
Robert Pralgo as L.A. Sheriff
Hajji Golightly as DEA Agent
Ted Huckabee as Bob
Mary Elizabeth Winstead as Anna Simons
Lucas Hedges as Ian Webb
Rosemarie DeWitt as Sue Webb
Matt Lintz as Eric Webb
Trailers:
Trailer #1


Watch-Free-HD     Download

Details
Name:Kill.The.Messenger.2014.BluRay.(400mb).x264.{Dual.Audio}.[Hindi.Org-English].-.DownloadHD
Description:
Format                      : Matroska
Format version              : Version 4 / Version 2
File size                   : 403 MiB
Duration                    : 1 h 51 min
Overall bit rate            : 503 kb/s
Movie name                  : ~Hammer~

Video
ID                          : 1
Format                      : AVC
Format/Info                 : Advanced Video Codec
Format profile              : [email protected]
Format settings             : CABAC / 16 Ref Frames
Format settings, CABAC      : Yes
Format settings, ReFrames   : 16 frames
Codec ID                    : V_MPEG4/ISO/AVC
Duration                    : 1 h 51 min
Bit rate                    : 369 kb/s
Width                       : 640 pixels
Height                      : 266 pixels
Display aspect ratio        : 2.40:1
Frame rate mode             : Constant
Frame rate                  : 23.976 (24000/1001) FPS

Audio #1
ID                          : 2
Format                      : AAC
Format/Info                 : Advanced Audio Codec
Format profile              : LC
Codec ID                    : A_AAC-2
Duration                    : 1 h 51 min
Bit rate                    : 66.2 kb/s
Channel(s)                  : 2 channels
Channel positions           : Front: L R
Sampling rate               : 48.0 kHz
Frame rate                  : 46.875 FPS (1024 SPF)
Compression mode            : Lossy
Delay relative to video     : -21 ms
Stream size                 : 53.6 MiB (13%)
Title                       : Stereo
Language                    : Hindi

Audio #2
ID                          : 3
Format                      : AAC
Format/Info                 : Advanced Audio Codec
Format profile              : LC
Codec ID                    : A_AAC-2
Duration                    : 1 h 51 min
Bit rate                    : 66.2 kb/s
Channel(s)                  : 2 channels
Channel positions           : Front: L R
Sampling rate               : 48.0 kHz
Frame rate                  : 46.875 FPS (1024 SPF)
Compression mode            : Lossy
Delay relative to video     : -21 ms
Stream size                 : 52.1 MiB (13%)
Title                       : Stereo
Language                    : English

 
Category:Movies > Hollywood Dub
Lang:Hindi
Total Size:402.61 MB
Info Hash:85a7da7ea68eae2eebbc031a67c8cce6a76e59c5
Added By:Download
Date Added:06-09-2018 02:46:28
Downloads:187

Ratings:Not Yet Rated (Log in to rate it)


Tracker:
udp://tracker.coppersurfer.tk:6969/announce


File List: 


Comments

No comments still posted

Top
Copyright 2018 DownloadHD -|- Page Generated In 0.614573 secs.
-|- RSS Feed -|- Feed Info