Login
Username:
Password:
[Signup]
[Recover Account]


Browse Torrents

Poll


You must be logged in to view polls



Latest Torrents
Baptiste.S01E01.HD...
- [Size: 274.53 MB]

Kursk.2019.HC.HDRi...
- [Size: 1.05 GB]

Evil.Lives.Here.S0...
- [Size: 220.93 MB]

Call.The.Midwife.S...
- [Size: 339.36 MB]

Call.The.Midwife.S...
- [Size: 340.85 MB]


Torrent Details For "Funny.People.2009.BluRay.720p.x264.{Dual.Audio}.[Hindi.Org-English].-.DownloadHD"

Funny.People.2009.BluRay.720p.x264.{Dual.Audio}.[Hindi.Org-English].-.DownloadHD

Download this torrent | Magnet Download
Health:
Seeds: 0
Leechers: 20
Completed: 11 
Last Checked: 06-02-2019 05:11:05
External Torrent
Update Stats



Images Host

Poster


iMDB
Imdb Picture Title: Funny People
Year: 2009
Runtime: 146 minutes
Votes: 105397
Rating: 6.3/10
Language: English
Country: USA
All Genres: Comedy, Drama
Plot Outline: When seasoned comedian George Simmons learns of his terminal, inoperable health condition, his desire to form a genuine friendship causes him to take a relatively green performer under his wing as his opening act.
Tagline: George Simmons was prepared to die, but then a funny thing happened.
Director: Judd Apatow
Writing By: Judd Apatow,
Produced By: Judd Apatow,Andrew Jay Cohen,Jack Giarraputo,Evan Goldberg,Lisa Goldberg,Barry Mendel,Brendan O'Brien,Seth Rogen,Clayton Townsend,
Music: Michael Andrews Jason Schwartzman
Cast:
Adam Sandler as George Simmons
Seth Rogen as Ira Wright
Leslie Mann as Laura
Eric Bana as Clarke
Jonah Hill as Leo Koenig
Jason Schwartzman as Mark Taylor Jackson
Aubrey Plaza as Daisy Danby
Maude Apatow as Mable
Iris Apatow as Ingrid
RZA as Chuck
Trailers:
Funny People -- International Trailer
Funny People


Watch-Free-HD     Download

Details
Name:Funny.People.2009.BluRay.720p.x264.{Dual.Audio}.[Hindi.Org-English].-.DownloadHD
Description:
Format                      : Matroska
Format version              : Version 4 / Version 2
File size                   : 1.59 GiB
Duration                    : 2 h 26 min
Overall bit rate            : 1 555 kb/s
Movie name                  : ~Hammer~

Video
ID                          : 1
Format                      : AVC
Format/Info                 : Advanced Video Codec
Format profile              : [email protected]
Format settings             : CABAC / 8 Ref Frames
Format settings, CABAC      : Yes
Format settings, ReFrames   : 8 frames
Codec ID                    : V_MPEG4/ISO/AVC
Duration                    : 2 h 25 min
Bit rate                    : 1 200 kb/s
Width                       : 1 280 pixels
Height                      : 692 pixels
Display aspect ratio        : 1.85:1
Frame rate mode             : Constant
Frame rate                  : 23.976 (24000/1001) FPS

Audio #1
ID                          : 2
Format                      : AAC
Format/Info                 : Advanced Audio Codec
Format profile              : LC
Codec ID                    : A_AAC-2
Duration                    : 2 h 26 min
Bit rate                    : 160 kb/s
Channel(s)                  : 2 channels
Channel positions           : Front: L R
Sampling rate               : 48.0 kHz
Frame rate                  : 46.875 FPS (1024 SPF)
Compression mode            : Lossy
Delay relative to video     : -21 ms
Stream size                 : 167 MiB (10%)
Title                       : Stereo
Language                    : Hindi

Audio #2
ID                          : 3
Format                      : AAC
Format/Info                 : Advanced Audio Codec
Format profile              : LC
Codec ID                    : A_AAC-2
Duration                    : 2 h 25 min
Bit rate                    : 160 kb/s
Channel(s)                  : 2 channels
Channel positions           : Front: L R
Sampling rate               : 48.0 kHz
Frame rate                  : 46.875 FPS (1024 SPF)
Compression mode            : Lossy
Delay relative to video     : -21 ms
Stream size                 : 167 MiB (10%)
Title                       : Stereo
Language                    : English

 
Category:Movies > Hollywood Dub
Lang:Hindi
Total Size:1.59 GB
Info Hash:cbe1047822eb41df05ecf4f15dc93a01c60ef4b2
Added By:Download
Date Added:06-09-2018 04:49:36
Downloads:247

Ratings:Not Yet Rated (Log in to rate it)


Tracker:
udp://tracker.coppersurfer.tk:6969/announce


File List: 


Comments

No comments still posted

Top
Copyright 2018 DownloadHD -|- Page Generated In 0.665075 secs.
-|- RSS Feed -|- Feed Info