Login
Username:
Password:
[Signup]
[Recover Account]


Browse Torrents

Poll


You must be logged in to view polls



Latest Torrents
Kursk.2019.HC.HDRi...
- [Size: 1.05 GB]

Evil.Lives.Here.S0...
- [Size: 220.93 MB]

Call.The.Midwife.S...
- [Size: 339.36 MB]

Call.The.Midwife.S...
- [Size: 340.85 MB]

Top.Gear.S26E01.RE...
- [Size: 1.41 GB]


Torrent Details For "Armageddon.1998.BluRay.720p.x264.{Dual.Audio}.[Hindi.Org-English].-.DownloadHD"

Armageddon.1998.BluRay.720p.x264.{Dual.Audio}.[Hindi.Org-English].-.DownloadHD

Download this torrent | Magnet Download
Health:
Seeds: 9
Leechers: 5
Completed: 38 
Last Checked: 12-02-2019 12:23:14
External Torrent
Update Stats



Images Host

Poster


iMDB
Title: Armageddon
Year: 1998
Runtime: 151 minutes
Language: English, Russian, Indonesian
All Genres: Action, Adventure, Sci-Fi, Thriller
Tagline: Earth. It Was Fun While It Lasted.
Director: Michael Bay
Writing By: Jonathan Hensleigh,J.J. Abrams,Tony Gilroy,Shane Salerno,Robert Roy Pool,Jonathan Hensleigh,
Produced By: Kenny Bates,Michael Bay,Jerry Bruckheimer,Jonathan Hensleigh,Gale Anne Hurd,Chad Oman,Pat Sandston,Jim Van Wyck,Barry H. Waldman,
Music: Trevor Rabin
Cast:
Bruce Willis as Harry S. Stamper
Billy Bob Thornton as Dan Truman
Ben Affleck as A.J. Frost
Liv Tyler as Grace Stamper
Will Patton as Chick
Steve Buscemi as Rockhound
William Fichtner as Colonel Willie Sharp
Owen Wilson as Oscar
Michael Clarke Duncan as Bear
Peter Stormare as Lev Andropov
Trailers:
Armageddon


Watch-Free-HD     Download

Details
Name:Armageddon.1998.BluRay.720p.x264.{Dual.Audio}.[Hindi.Org-English].-.DownloadHD
Description:
Format                      : Matroska
Format version              : Version 4 / Version 2
File size                   : 1.61 GiB
Duration                    : 2 h 30 min
Overall bit rate            : 1 533 kb/s

Video
ID                          : 1
Format                      : AVC
Format/Info                 : Advanced Video Codec
Format profile              : [email protected]
Format settings             : CABAC / 8 Ref Frames
Format settings, CABAC      : Yes
Format settings, ReFrames   : 8 frames
Codec ID                    : V_MPEG4/ISO/AVC
Duration                    : 2 h 30 min
Bit rate                    : 1 200 kb/s
Width                       : 1 280 pixels
Height                      : 532 pixels
Display aspect ratio        : 2.40:1
Frame rate mode             : Constant
Frame rate                  : 23.976 (24000/1001) FPS

Audio #1
ID                          : 2
Format                      : AAC
Format/Info                 : Advanced Audio Codec
Format profile              : LC
Codec ID                    : A_AAC-2
Duration                    : 2 h 30 min
Bit rate                    : 160 kb/s
Channel(s)                  : 2 channels
Channel positions           : Front: L R
Sampling rate               : 48.0 kHz
Frame rate                  : 46.875 FPS (1024 SPF)
Compression mode            : Lossy
Delay relative to video     : -21 ms
Stream size                 : 173 MiB (10%)
Title                       : Stereo
Language                    : Hindi

Audio #2
ID                          : 3
Format                      : AAC
Format/Info                 : Advanced Audio Codec
Format profile              : LC
Codec ID                    : A_AAC-2
Duration                    : 2 h 30 min
Bit rate                    : 160 kb/s
Channel(s)                  : 2 channels
Channel positions           : Front: L R
Sampling rate               : 48.0 kHz
Frame rate                  : 46.875 FPS (1024 SPF)
Compression mode            : Lossy
Delay relative to video     : -21 ms
Stream size                 : 173 MiB (10%)
Title                       : Stereo
Language                    : English

 
Category:Movies > Hollywood Dub
Lang:Hindi
Total Size:1.61 GB
Info Hash:3c62ba094f2d0fdc61b042cb2b95f62cfd899131
Added By:Download
Date Added:06-09-2018 04:55:20
Downloads:216

Ratings:Not Yet Rated (Log in to rate it)


Tracker:
udp://tracker.coppersurfer.tk:6969/announce


File List: 


Comments

No comments still posted

Top
Copyright 2018 DownloadHD -|- Page Generated In 0.571305 secs.
-|- RSS Feed -|- Feed Info