Login
Username:
Password:
[Signup]
[Recover Account]


Browse Torrents

Poll


You must be logged in to view polls



Latest Torrents
Baptiste.S01E01.HD...
- [Size: 274.53 MB]

Kursk.2019.HC.HDRi...
- [Size: 1.05 GB]

Evil.Lives.Here.S0...
- [Size: 220.93 MB]

Call.The.Midwife.S...
- [Size: 339.36 MB]

Call.The.Midwife.S...
- [Size: 340.85 MB]


Torrent Details For "My Daddys in Heaven.2017.720p.NF.WEBRip.x264.AAC.-.DownloadHD"

My Daddys in Heaven.2017.720p.NF.WEBRip.x264.AAC.-.DownloadHD

Download this torrent | Magnet Download
Health:
Seeds: 0
Leechers: 5
Completed: 38 
Last Checked: 30-12-2018 07:31:46
External Torrent
Update Stats



Images Host

Poster
No poster


Watch-Free-HD     Download

Details
Name:My Daddys in Heaven.2017.720p.NF.WEBRip.x264.AAC.-.DownloadHD
Description:




       

Format                                   : Matroska
Format version                           : Version 4 / Version 2
File size                                : 730 MiB
Duration                                 : 1 h 36 min
Overall bit rate                         : 1 060 kb/s
Movie name                               : My Daddys in Heaven.2017.720p.NF.WEBRip.x264.AAC.-.DownloadHD


Video
ID                                       : 1
Format                                   : AVC
Format/Info                              : Advanced Video Codec
Format profile                           : [email protected]
Format settings                          : CABAC / 4 Ref Frames
Format settings, CABAC                   : Yes
Format settings, RefFrames               : 4 frames
Codec ID                                 : V_MPEG4/ISO/AVC
Duration                                 : 1 h 35 min
Bit rate                                 : 1 000 kb/s
Width                                    : 1 280 pixels
Height                                   : 720 pixels
Display aspect ratio                     : 16:9
Frame rate mode                          : Constant
Frame rate                               : 23.976 (24000/1001) FPS


Audio
ID                                       : 2
Format                                   : AAC
Format/Info                              : Advanced Audio Codec
Format profile                           : LC
Codec ID                                 : A_AAC-2
Duration                                 : 1 h 36 min
Bit rate                                 : 87.8 kb/s
Channel(s)                               : 2 channels
Channel positions                        : Front: L R
Sampling rate                            : 48.0 kHz
Frame rate                               : 46.875 FPS (1024 SPF)
Compression mode                         : Lossy
Delay relative to video                  : 9 ms
Stream size                              : 60.4 MiB (8%)
Title                                    : seflv.net
Language                                 : English

Text
ID                                       : 3
Format                                   : UTF-8
Codec ID                                 : S_TEXT/UTF8
Codec ID/Info                            : UTF-8 Plain Text
Duration                                 : 1 h 31 min
Bit rate                                 : 79 b/s
Count of elements                        : 1972
Stream size                              : 53.6 KiB (0%)
Title                                    : seflv.net
Language                                 : English


For more Exclusive & Quality Stuff Visit :: DownloadHD

 


Category:Movies > HDRips
Lang:English  English
Total Size:736.79 MB
Info Hash:2e8a5664fb9ef451643596b03caabc66e4572436
Added By:Download
Date Added:06-09-2018 11:08:03
Downloads:29

Ratings:Not Yet Rated (Log in to rate it)


Tracker:
udp://tracker.coppersurfer.tk:6969/announce


File List: 


Comments

No comments still posted

Top
Copyright 2018 DownloadHD -|- Page Generated In 1.049210 secs.
-|- RSS Feed -|- Feed Info