Login
Username:
Password:
[Signup]
[Recover Account]


Browse Torrents

Poll


You must be logged in to view polls



Latest Torrents
The.Simpsons.S30E1...
- [Size: 544.03 MB]

The.Simpsons.S30E1...
- [Size: 301.38 MB]

Family.Guy.S17E13....
- [Size: 203.86 MB]

Bobs.Burgers.S09E1...
- [Size: 217.96 MB]

Pitching.In.S01E02...
- [Size: 430.51 MB]


Torrent Details For "How to Get Girls.2017.1080p.WEB-DL.x264.AAC.5.1.-.DownloadHD"

How to Get Girls.2017.1080p.WEB-DL.x264.AAC.5.1.-.DownloadHD

Download this torrent | Magnet Download
Health:
Seeds: 0
Leechers: 8
Completed:
Last Checked: 16-02-2019 20:51:11
External Torrent
Update Stats



Images Host

Poster
No poster


Watch-Free-HD     Download

Details
Name:How to Get Girls.2017.1080p.WEB-DL.x264.AAC.5.1.-.DownloadHD
Description:




       

Format                                   : Matroska
Format version                           : Version 4 / Version 2
File size                                : 1.78 GiB
Duration                                 : 1 h 32 min
Overall bit rate                         : 2 768 kb/s
Movie name                               : How to Get Girls.2017.1080p.WEB-DL.x264.AAC.5.1.-.DownloadHD

Video
ID                                       : 1
Format                                   : AVC
Format/Info                              : Advanced Video Codec
Format profile                           : [email protected]
Format settings                          : CABAC / 4 Ref Frames
Format settings, CABAC                   : Yes
Format settings, RefFrames               : 4 frames
Codec ID                                 : V_MPEG4/ISO/AVC
Duration                                 : 1 h 32 min
Bit rate                                 : 2 500 kb/s
Width                                    : 1 912 pixels
Height                                   : 792 pixels
Display aspect ratio                     : 2.40:1
Frame rate mode                          : Constant
Frame rate                               : 23.976 (24000/1001) FPS

Audio
ID                                       : 2
Format                                   : AAC
Format/Info                              : Advanced Audio Codec
Format profile                           : LC
Codec ID                                 : A_AAC-2
Duration                                 : 1 h 32 min
Bit rate                                 : 318 kb/s
Channel(s)                               : 6 channels
Channel positions                        : Front: L C R, Side: L R, LFE
Sampling rate                            : 48.0 kHz
Frame rate                               : 46.875 FPS (1024 SPF)
Compression mode                         : Lossy
Delay relative to video                  : 9 ms
Stream size                              : 210 MiB (11%)
Title                                    : seflv.net
Language                                 : English

Text
ID                                       : 3
Format                                   : UTF-8
Codec ID                                 : S_TEXT/UTF8
Codec ID/Info                            : UTF-8 Plain Text
Duration                                 : 1 h 31 min
Bit rate                                 : 91 b/s
Count of elements                        : 2172
Stream size                              : 61.3 KiB (0%)
Title                                    : seflv.net
Language                                 : English


For more Exclusive & Quality Stuff Visit :: DownloadHD

 

Category:Movies > HDRips
Lang:English  English
Total Size:1.80 GB
Info Hash:eb1bfc1579519939a2c383419d7c2966bb002f1c
Added By:Download
Date Added:06-09-2018 11:47:03
Downloads:62

Ratings:Not Yet Rated (Log in to rate it)


Tracker:
udp://tracker.coppersurfer.tk:6969/announce


File List: 


Comments

No comments still posted

Top
Copyright 2018 DownloadHD -|- Page Generated In 2.131617 secs.
-|- RSS Feed -|- Feed Info