Login
Username:
Password:
[Signup]
[Recover Account]


Browse Torrents

Poll


You must be logged in to view polls



Latest Torrents
From.Straight.as.t...
- [Size: 896.22 MB]

Cheater 2016 Marat...
- [Size: 2.59 GB]

Live.PD.S03E45.HDT...
- [Size: 1.75 GB]

Overlord.2018.INTE...
- [Size: 18.67 GB]

Crucible.of.the.Va...
- [Size: 1.33 GB]


Torrent Details For "Stealth.2005.BluRay.720p.x264.{Dual.Audio}.[Hindi.Org-English].-.DownloadHD"

Stealth.2005.BluRay.720p.x264.{Dual.Audio}.[Hindi.Org-English].-.DownloadHD

Download this torrent | Magnet Download
Health:
Seeds: 0
Leechers: 1
Completed: 860 
Last Checked: 06-01-2019 23:01:46
External Torrent
Update Stats



Images Host

Poster


iMDB
Title: Stealth
Year: 2005
Runtime: 121 minutes
Language: English, Korean, Russian, Spanish
All Genres: Action, Adventure, Sci-Fi, Thriller
Tagline: Fear The Sky
Director: Rob Cohen
Writing By: W.D. Richter,
Produced By: Mike Medavoy,Arnold Messer,Neal H. Moritz,Kwame Parker,Michelle Purple,Sasisupa Sungvaribud,E. Bennett Walsh,Laura Ziskin,
Music: BT
Cast:
Josh Lucas as Lt. Ben Gannon
Jessica Biel as Lt. Kara Wade
Jamie Foxx as Lt. Henry Purcell
Sam Shepard as Capt. George Cummings
Richard Roxburgh as Dr. Keith Orbit
Joe Morton as Capt. Dick Marshfield
Ian Bliss as Lt. Aaron Shaftsbury
Ebon Moss-Bachrach as Tim
Michael Denkha as Naval Controller
Rocky Helton as Master at Arms
Trailers:
Stealth


Watch-Free-HD     Download

Details
Name:Stealth.2005.BluRay.720p.x264.{Dual.Audio}.[Hindi.Org-English].-.DownloadHD
Description:
Format                      : Matroska
Format version              : Version 4 / Version 2
File size                   : 1.26 GiB
Duration                    : 1 h 55 min
Overall bit rate            : 1 555 kb/s
Movie name                  : ~Hammer~

Video
ID                          : 1
Format                      : AVC
Format/Info                 : Advanced Video Codec
Format profile              : [email protected]
Format settings             : CABAC / 8 Ref Frames
Format settings, CABAC      : Yes
Format settings, ReFrames   : 8 frames
Codec ID                    : V_MPEG4/ISO/AVC
Duration                    : 1 h 55 min
Bit rate                    : 1 200 kb/s
Width                       : 1 280 pixels
Height                      : 532 pixels
Display aspect ratio        : 2.40:1
Frame rate mode             : Constant
Frame rate                  : 25.000 FPS

Audio #1
ID                          : 2
Format                      : AAC
Format/Info                 : Advanced Audio Codec
Format profile              : LC
Codec ID                    : A_AAC-2
Duration                    : 1 h 55 min
Bit rate                    : 160 kb/s
Channel(s)                  : 2 channels
Channel positions           : Front: L R
Sampling rate               : 48.0 kHz
Frame rate                  : 46.875 FPS (1024 SPF)
Compression mode            : Lossy
Delay relative to video     : -21 ms
Stream size                 : 133 MiB (10%)
Title                       : Stereo
Language                    : Hindi

Audio #2
ID                          : 3
Format                      : AAC
Format/Info                 : Advanced Audio Codec
Format profile              : LC
Codec ID                    : A_AAC-2
Duration                    : 1 h 55 min
Bit rate                    : 160 kb/s
Channel(s)                  : 2 channels
Channel positions           : Front: L R
Sampling rate               : 48.0 kHz
Frame rate                  : 46.875 FPS (1024 SPF)
Compression mode            : Lossy
Delay relative to video     : -21 ms
Stream size                 : 133 MiB (10%)
Title                       : Stereo
Language                    : English

 
Category:Movies > Hollywood Dub
Lang:Hindi
Total Size:1.26 GB
Info Hash:485557fb11c039c1ace512f58a7f71bb6c944354
Added By:Download
Date Added:07-09-2018 03:49:07
Downloads:291

Ratings:Not Yet Rated (Log in to rate it)


Tracker:
udp://tracker.coppersurfer.tk:6969/announce


File List: 


Comments

No comments still posted

Top
Copyright 2018 DownloadHD -|- Page Generated In 1.866218 secs.
-|- RSS Feed -|- Feed Info