Login
Username:
Password:
[Signup]
[Recover Account]


Browse Torrents

Poll


You must be logged in to view polls



Latest Torrents
Suspiria 2018 1080...
- [Size: 4.40 GB]

Bohemian Rhapsody ...
- [Size: 4.41 GB]

The.Kitchen.S20E02...
- [Size: 687.61 MB]

What Men Want (201...
- [Size: 851.39 MB]

What Men Want 2019...
- [Size: 680.15 MB]


Torrent Details For "ParaNorman.2012.BluRay.720p.x264.{Dual.Audio}.[Hindi.Org-English].-.DownloadHD"

ParaNorman.2012.BluRay.720p.x264.{Dual.Audio}.[Hindi.Org-English].-.DownloadHD

Download this torrent | Magnet Download
Health:
Seeds: 0
Leechers: 7
Completed:
Last Checked: 09-02-2019 03:30:12
External Torrent
Update Stats



Images Host

Poster


iMDB
Title: ParaNorman
Year: 2012
Runtime: 92 minutes
Language: English
All Genres: Animation, Adventure, Comedy, Family, Fantasy
Tagline: It's all fun and games until someone raises the dead.
Director: Chris Butler
Sam Fell
Writing By: Chris Butler,
Produced By: Matthew Fried,Travis Knight,Arianne Sutner,Carl Beyer,
Music: Jon Brion
Cast:
Kodi Smit-McPhee as Norman Babcock
Tucker Albrizzi as Neil
Anna Kendrick as Courtney Babcock
Casey Affleck as Mitch
Christopher Mintz-Plasse as Alvin
Leslie Mann as Sandra Babcock
Jeff Garlin as Perry Babcock
Elaine Stritch as Grandma
Bernard Hill as The Judge
Jodelle Ferland as Aggie
Trailers:
No. 3
No. 2
No. 1


Watch-Free-HD     Download

Details
Name:ParaNorman.2012.BluRay.720p.x264.{Dual.Audio}.[Hindi.Org-English].-.DownloadHD
Description:
Format                      : Matroska
Format version              : Version 4 / Version 2
File size                   : 1 005 MiB
Duration                    : 1 h 32 min
Overall bit rate            : 1 523 kb/s
Movie name                  : ~Hammer~

Video
ID                          : 1
Format                      : AVC
Format/Info                 : Advanced Video Codec
Format profile              : [email protected]
Format settings             : CABAC / 8 Ref Frames
Format settings, CABAC      : Yes
Format settings, ReFrames   : 8 frames
Codec ID                    : V_MPEG4/ISO/AVC
Duration                    : 1 h 32 min
Bit rate                    : 1 200 kb/s
Width                       : 1 280 pixels
Height                      : 532 pixels
Display aspect ratio        : 2.40:1
Frame rate mode             : Constant
Frame rate                  : 23.976 (24000/1001) FPS

Audio #1
ID                          : 2
Format                      : AAC
Format/Info                 : Advanced Audio Codec
Format profile              : LC
Codec ID                    : A_AAC-2
Duration                    : 1 h 32 min
Bit rate                    : 160 kb/s
Channel(s)                  : 2 channels
Channel positions           : Front: L R
Sampling rate               : 48.0 kHz
Frame rate                  : 46.875 FPS (1024 SPF)
Compression mode            : Lossy
Delay relative to video     : -21 ms
Stream size                 : 106 MiB (11%)
Title                       : Stereo
Language                    : Hindi

Audio #2
ID                          : 3
Format                      : AAC
Format/Info                 : Advanced Audio Codec
Format profile              : LC
Codec ID                    : A_AAC-2
Duration                    : 1 h 32 min
Bit rate                    : 160 kb/s
Channel(s)                  : 2 channels
Channel positions           : Front: L R
Sampling rate               : 48.0 kHz
Frame rate                  : 46.875 FPS (1024 SPF)
Compression mode            : Lossy
Delay relative to video     : -21 ms
Stream size                 : 106 MiB (11%)
Title                       : Stereo
Language                    : English

 
Category:Movies > Hollywood Dub
Lang:Hindi
Total Size:1,004.93 MB
Info Hash:cc33d6af8f4db4df57f667aa91b89a234825dc71
Added By:Download
Date Added:07-09-2018 03:53:58
Downloads:311

Ratings:Not Yet Rated (Log in to rate it)


Tracker:
udp://tracker.coppersurfer.tk:6969/announce


File List: 


Comments

No comments still posted

Top
Copyright 2018 DownloadHD -|- Page Generated In 0.321031 secs.
-|- RSS Feed -|- Feed Info