Login
Username:
Password:
[Signup]
[Recover Account]


Browse Torrents

Poll


You must be logged in to view polls



Latest Torrents
From.Straight.as.t...
- [Size: 896.22 MB]

Cheater 2016 Marat...
- [Size: 2.59 GB]

Live.PD.S03E45.HDT...
- [Size: 1.75 GB]

Overlord.2018.INTE...
- [Size: 18.67 GB]

Crucible.of.the.Va...
- [Size: 1.33 GB]


Torrent Details For "Okja.2017.720p.HDRip.x264.[Hindi+English].AAC.-.Download"

Okja.2017.720p.HDRip.x264.[Hindi+English].AAC.-.Download

Download this torrent | Magnet Download
Health:
Seeds: 0
Leechers: 5
Completed:
Last Checked: 02-12-2018 11:27:29
External Torrent
Update Stats



Images Host

Poster


iMDB
Imdb Picture Title: Okja
Year: 2017
Runtime: 118 minutes
Votes: 764
Rating: 7.2/10
Language: Korean, English
Country: South Korea, USA
All Genres: Action, Adventure, Drama, Sci-Fi
Plot Outline: Meet Mija, a young girl who risks everything to prevent a powerful, multi-national company from kidnapping her best friend - a massive animal named Okja.
Director: Joon-ho Bong
Writing By: Joon-ho Bong,Joon-ho Bong,Jon Ronson,
Produced By: Joon-ho Bong,Luca Borghese,Dooho Choi,Collin Creighton,Sarah Esberg,Pauline Fischer,Dede Gardner,Lewis Taewan Kim,Woosang Kim,Jeremy Kleiner,Sandro Kopp,Christina Oh,Brad Pitt,Ted Sarandos,Woo-sik Seo,Tilda Swinton,Stan Wlodkowski,
Plot:

For 10 idyllic years, young Mija (An Seo Hyun) has been caretaker and constant companion to Okja-a massive animal and an even bigger friend-at her home in the mountains of South Korea. But that changes when a family-owned multinational conglomerate Mirando Corporation takes Okja for themselves and transports her to New York, where image obsessed and self-promoting CEO Lucy Mirando (Tilda Swinton) has big plans for Mija's dearest friend. With no particular plan but single-minded in intent, Mija sets out on a rescue mission, but her already daunting journey quickly becomes more complicated when she crosses paths with disparate groups of capitalists, demonstrators and consumers, each battling to control the fate of Okja...while all Mija wants to do is bring her friend home. Deftly blending genres, humor, poignancy and drama, Bong Joon Ho (Snowpiercer, The Host) begins with the gentlest of premises-the bond between man and animal-and ultimately creates a distinct and layered vision of the world that addresses the animal inside us all. Okja is a Plan B Entertainment, Lewis Pictures and Kate Street Picture Company production in association with Netflix.

- Written by Netflix

Meet Mija, a young girl who risks everything to prevent a powerful, multi-national company from kidnapping her best friend - a massive animal named Okja.


Cast:
Tilda Swinton as Lucy and Nancy Mirando
Sheena Kamal as Stylist 2007 / 2017
Michael Mitton as Make-up Artist 2007
Colm Hill as Sarcastic British Reporter
Kathryn Kirkpatrick as Epicurean Reporter
Jose Carias as SeƱor Villacorta
Giancarlo Esposito as Frank Dawson
Jake Gyllenhaal as Johnny Wilcox
Nancy Amelia Bell as Elderly Reporter
Seo-Hyun Ahn as Mija
Trailers:
Trailer #2
Official Trailer
Teaser


Watch-Free-HD     Download

Details
Name:Okja.2017.720p.HDRip.x264.[Hindi+English].AAC.-.Download
Description:

Source                      : Hindi ICTV

Format                      : Matroska
Format version              : Version 4 / Version 2
File size                   : 1.09 GiB
Duration                    : 2 h 1 min
Overall bit rate            : 1 288 kb/s

Video
ID                          : 1
Format                      : AVC
Format/Info                 : Advanced Video Codec
Format profile              : [email protected]
Format settings, CABAC      : Yes
Format settings, ReFrames   : 5 frames
Codec ID                    : V_MPEG4/ISO/AVC
Duration                    : 2 h 1 min
Bit rate                    : 1 000 kb/s
Width                       : 1 280 pixels
Height                      : 536 pixels
Display aspect ratio        : 2.40:1
Frame rate mode             : Constant
Frame rate                  : 24.000 FPS

Audio #1
ID                          : 2
Format                      : AAC
Format/Info                 : Advanced Audio Codec
Format profile              : HE-AAC / LC
Codec ID                    : A_AAC
Duration                    : 2 h 1 min
Bit rate                    : 96.0 kb/s
Channel(s)                  : 2 channels
Channel positions           : Front: L R
Sampling rate               : 48.0 kHz / 24.0 kHz
Frame rate                  : 23.438 FPS (1024 spf)
Compression mode            : Lossy
Delay relative to video     : -21 ms
Stream size                 : 82.2 MiB (7%)
Title                       : Hindi
Language                    : Hindi

Audio #2
ID                          : 3
Format                      : AAC
Format/Info                 : Advanced Audio Codec
Format profile              : LC
Codec ID                    : A_AAC
Duration                    : 2 h 1 min
Bit rate                    : 192 kb/s
Channel(s)                  : 6 channels
Channel positions           : Front: L C R, Side: L R, LFE
Sampling rate               : 48.0 kHz
Frame rate                  : 46.875 FPS (1024 spf)
Compression mode            : Lossy
Delay relative to video     : -21 ms
Stream size                 : 166 MiB (15%)
Language                    : English

              
Category:Movies > Hollywood Dub
Lang:Hindi
Total Size:1.10 GB
Info Hash:9d29cf71b11994fbb5cdd145f3c37f8968a2ac10
Added By:Unknown
Date Added:30-06-2017 21:28:05
Downloads:1,176

Ratings:rating: 5.0/5 (5.0 Out Of 5) 2 users have rated this torrent (Log in to rate it)


Tracker:
http://ipv4.tracker.harry.lu/announce

This Torrent also has backup trackers
URLSeedersLeechersCompleted
http://ipv4.tracker.harry.lu/announce717
http://ipv4.tracker.harry.lu:80/announce717
http://opentracker-milanesi.rhcloud.com/announce31770
http://t.nyaatracker.com/announce010
http://tracker.devil-torrents.pl:80/announce14230
http://tracker.devil-torrents.pl/announce14230
http://open.kickasstracker.com/announce820
http://opentracker-milanesi.rhcloud.com:80/announce31770
http://open.kickasstracker.com:443/announce830
http://opentracker-milanesi.rhcloud.com:443/announce520
http://t.nyaatracker.com:80/announce010


File List: 


Comments

<< Previous      Next >>
1 - 2

[Report] Posted: 01-07-2017 at 15:54:24
Unique



Nice Share....  :) Thanks.

[Report] Posted: 03-07-2017 at 08:42:29
wiki



Good WOrk Download Luv U :)

1 - 2
<< Previous      Next >>


Top
Copyright 2018 DownloadHD -|- Page Generated In 3.844185 secs.
-|- RSS Feed -|- Feed Info