Login
Username:
Password:
[Signup]
[Recover Account]


Browse Torrents

Poll


You must be logged in to view polls



Latest Torrents
Windy.City.Rehab.S...
- [Size: 354.87 MB]

Bobs.Burgers.S09E1...
- [Size: 347.84 MB]

Spider-Man.Into th...
- [Size: 2.26 GB]

The.Simpsons.S30E1...
- [Size: 544.03 MB]

The.Simpsons.S30E1...
- [Size: 301.38 MB]


Torrent Details For "15 Minutes 2001 720p Esub BluRay Dual Audio English Hindi GOPI SAHI"

15 Minutes 2001 720p Esub BluRay Dual Audio English Hindi GOPI SAHI

Download this torrent | Magnet Download
Health:
Seeds: 0
Leechers: 3
Completed:
Last Checked: 30-12-2018 05:50:46
External Torrent
Update Stats



Images Host

Poster
No poster


Watch-Free-HD     Download

Details
Name:15 Minutes 2001 720p Esub BluRay Dual Audio English Hindi GOPI SAHI
Description:
Video
Format                         : AVC
Codec ID                       : V_MPEG4/ISO/AVC
Duration                       : 2 h 0 min
Bit rate mode                  : Variable
Bit rate                       : 720 kb/s
Maximum bit rate               : 25.0 Mb/s
Width                          : 1 280 pixels
Height                         : 544 pixels
Display aspect ratio           : 2.35:1
Frame rate mode                : Constant
Frame rate                     : 23.976 (24000/1001) FPS
Stream size                    : 620 MiB (79%)
Writing library                : x264 core 129 r2245 bc13772

Audio #1
Format                         : AAC
Duration                       : 2 h 0 min
Bit rate                       : 96.0 kb/s
Channel(s)                     : 6 channels
Channel positions              : Front: L C R, Side: L R, LFE
Sampling rate                  : 44.1 kHz
Frame rate                     : 43.066 FPS (1024 spf)
Stream size                    : 82.5 MiB (10%)
Language                       : Hindi

Audio #2
Format                         : AC-3
Duration                       : 2 h 0 min
Bit rate mode                  : Constant
Bit rate                       : 96.0 kb/s
Channel(s)                     : 6 channels
Channel positions              : Front: L C R, Side: L R, LFE
Sampling rate                  : 44.1 kHz
Frame rate                     : 28.711 FPS (1536 spf)
Stream size                    : 82.8 MiB (11%)
Language                       : English
Service kind                   : Complete Main

Text
Duration                       : 1 h 53 min
Language                       : English


Category:Movies > Hollywood Dub
Lang:Hindi
Total Size:787.92 MB
Info Hash:acbfed19ed20984588b78ee4f96b5b43cab2b8c2
Added By:gopisahi
Date Added:01-07-2017 18:29:02
Downloads:911

Ratings:Not Yet Rated (Log in to rate it)


Tracker:
udp://tracker.coppersurfer.tk:6969/announce


File List: 


Comments

No comments still posted

Top
Copyright 2018 DownloadHD -|- Page Generated In 0.223731 secs.
-|- RSS Feed -|- Feed Info