Login
Username:
Password:
[Signup]
[Recover Account]


Browse Torrents

Poll


You must be logged in to view polls



Latest Torrents
Bobs.Burgers.S09E1...
- [Size: 347.84 MB]

Spider-Man.Into th...
- [Size: 2.26 GB]

The.Simpsons.S30E1...
- [Size: 544.03 MB]

The.Simpsons.S30E1...
- [Size: 301.38 MB]

Family.Guy.S17E13....
- [Size: 203.86 MB]


Torrent Details For "Kaabil 2017 Untouched 1080p WEB-HD AVC AAC - Download [Exclusive]"

Kaabil 2017 Untouched 1080p WEB-HD AVC AAC - Download [Exclusive]

Download this torrent | Magnet Download
Health:
Seeds: 0
Leechers: 2
Completed:
Last Checked: 22-01-2019 10:26:18
External Torrent
Update Stats



Images Host

Poster


iMDB
Imdb Picture Title: Kaabil
Year: 2017
Runtime: 139 minutes
Votes: 16708
Rating: 7.3/10
Language: Hindi
Country: India
All Genres: Action, Drama, Romance, Thriller
Plot Outline: This is the story of a man who lived, laughed and loved just like everyone in this world. Until one day, a terrible tragedy struck. Driven by the fire of vengeance, nothing will stop him. ...
Tagline: The heart sees all.
Director: Sanjay Gupta
Writing By: Sanjay Masoom,Vijay Kumar Mishra,
Produced By: Ronak Motla,Rakesh Roshan,Shammi Saini,Zahir Shah,
Music: Salim Merchant Salim-Sulaiman
Plot:

This is the story of a man who lived, laughed and loved just like everyone in this world. Until one day, a terrible tragedy struck. Driven by the fire of vengeance, nothing will stop him. Not even the fact that he has been blind since birth.

- Written by Official Synopsis
Cast:
Hrithik Roshan as Rohan Bhatnagar
Yami Gautam as Supriya Bhatnagar
Ronit Roy as Madhavrao Shellar
Rohit Roy as Amit Shellar
Narendra Jha as Inspector Chaubey
Girish Kulkarni as Cop
Sahidur Rahaman as Wasim
Suresh Menon as Zafar
Shaji Chaudhary as Anna
Akhilendra Mishra as Wasim's Father
Trailers:
Official Trailer


Watch-Free-HD     Download

Details
Name:Kaabil 2017 Untouched 1080p WEB-HD AVC AAC - Download [Exclusive]
Description:
 http://extraimage.net/images/...d79e979bdf74ba2d.jpg

 http://www.imdb.com/title/tt5460276/


Kaabil 2017 1080p Untouched WEB-HD AVC AAC - Download



Format                      : MPEG-4
Format profile              : Base Media
Codec ID                    : isom (isom/iso2/avc1/mp41)
File size                   : 5.74 GiB
Duration                    : 2 h 14 min
Overall bit rate mode       : Variable
Overall bit rate            : 6 132 kb/s

Video
ID                          : 1
Format                      : AVC
Format/Info                 : Advanced Video Codec
Format profile              : [email protected]
Format settings, CABAC      : Yes
Format settings, ReFrames   : 1 frame
Format settings, GOP        : M=1, N=25
Codec ID                    : avc1
Codec ID/Info               : Advanced Video Coding
Duration                    : 2 h 14 min
Bit rate mode               : Constant
Bit rate                    : 6 000 kb/s
Width                       : 1 920 pixels
Height                      : 1 080 pixels
Display aspect ratio        : 16:9
Frame rate mode             : Constant
Frame rate                  : 25.000 FPS
Color space                 : YUV
Chroma subsampling          : 4:2:0
Bit depth                   : 8 bits
Scan type                   : Progressive
Bits/(Pixel*Frame)          : 0.116
Stream size                 : 5.62 GiB (98%)

Audio
ID                          : 2
Format                      : AAC
Format/Info                 : Advanced Audio Codec
Format profile              : LC
Codec ID                    : 40
Duration                    : 2 h 14 min
Bit rate mode               : Variable
Bit rate                    : 125 kb/s
Maximum bit rate            : 128 kb/s
Channel(s)                  : 2 channels
Channel positions           : Front: L R
Sampling rate               : 48.0 kHz
Frame rate                  : 46.875 FPS (1024 spf)
Compression mode            : Lossy
Stream size                 : 120 MiB (2%)
Default                     : Yes
Alternate group             : 1



 
 
 
 
 
 
 
Category:Movies > Bollywood
Lang:Hindi
Total Size:5.74 GB
Info Hash:857659710a08e6978adb313b17bbeb5869267858
Added By:Unknown
Date Added:17-04-2017 10:51:07
Downloads:365

Ratings:Not Yet Rated (Log in to rate it)


Tracker:
udp://tracker.coppersurfer.tk:6969/announce


File List: 


Comments

No comments still posted

Top
Copyright 2018 DownloadHD -|- Page Generated In 0.761705 secs.
-|- RSS Feed -|- Feed Info