Login
Username:
Password:
[Signup]
[Recover Account]


Browse Torrents

Poll


You must be logged in to view polls



Latest Torrents
What Men Want (201...
- [Size: 851.39 MB]

What Men Want 2019...
- [Size: 680.15 MB]

Goosebumps 2 Haun...
- [Size: 797.62 MB]

Love.After.Lockup....
- [Size: 389.85 MB]

Gotham.S05E06.13.S...
- [Size: 1.08 GB]


Torrent Details For "Sindoor (1987) Hindi Untouched 720p WEB-DL x264 AAC - DownloadHD"

Sindoor (1987) Hindi Untouched 720p WEB-DL x264 AAC - DownloadHD

Download this torrent | Magnet Download
Health:
Seeds: 0
Leechers: 5
Completed:
Last Checked: 06-01-2019 05:44:06
External Torrent
Update Stats



Images Host

Poster


iMDB
Imdb Picture Title: Sindoor
Year: 1987
Runtime: 162 minutes
Votes: 65
Rating: 5.6/10
Language: Hindi
Country: India
All Genres: Drama, Family
Plot Outline: Vijay forces his wife Laxmi to leave her house, suspecting an extra marital affair. Years later, Vijay and Laxmi come face to face and start meeting each other.
Director: K. Ravi Shankar

Produced By: A. Krishnamurthy,
Music: Laxmikant Shantaram Kudalkar Pyarelal Ramprasad Sharma
Plot:

Vijay forces his wife Laxmi to leave her house, suspecting an extra marital affair. Years later, Vijay and Laxmi come face to face and start meeting each other.

- Written by alex,[email protected]
Cast:
Shashi Kapoor as Professor Vijay Choudhury
Govinda as Ravi
Neelam Kothari as Lalita Kapoor
Jaya Prada as Laxmi Choudhury
Shakti Kapoor as Shera
Kader Khan as Advocate Dharamdas
Gulshan Grover as Shera's Nephew
Asrani as Chunilal
Aruna Irani as Ramkatori
Rishi Kapoor as Mr. Kumar (Guest Appearance)


Watch-Free-HD     Download

Details
Name:Sindoor (1987) Hindi Untouched 720p WEB-DL x264 AAC - DownloadHD
Description:

Sindoor (1987) Hindi Untouched 720p WEB-DL x264 AAC - DownloadHD


Format                                   : MPEG-4
Format profile                           : Base Media
Codec ID                                 : isom (isom/iso2/avc1/mp41)
File size                                : 1.88 GiB
Duration                                 : 2 h 45 min
Overall bit rate                         : 1 631 kb/s


Video
ID                                       : 1
Format                                   : AVC
Format/Info                              : Advanced Video Codec
Format profile                           : [email protected]
Format settings, CABAC                   : Yes
Format settings, ReFrames                : 3 frames
Format settings, GOP                     : M=1, N=50
Codec ID                                 : avc1
Codec ID/Info                            : Advanced Video Coding
Duration                                 : 2 h 45 min
Bit rate                                 : 1 498 kb/s
Width                                    : 1 280 pixels
Height                                   : 720 pixels
Display aspect ratio                     : 16:9
Frame rate mode                          : Constant
Frame rate                               : 25.000 FPS
Color space                              : YUV
Chroma subsampling                       : 4:2:0
Bit depth                                : 8 bits
Scan type                                : Progressive
Bits/(Pixel*Frame)                       : 0.065
Stream size                              : 1.73 GiB (92%)
Writing library                          : Zencoder Video Encoding System
Color range                              : Limited
Color primaries                          : BT.709
Transfer characteristics                 : BT.709
Matrix coefficients                      : BT.709

Audio
ID                                       : 2
Format                                   : AAC
Format/Info                              : Advanced Audio Codec
Format profile                           : LC
Codec ID                                 : 40
Duration                                 : 2 h 45 min
Bit rate mode                            : Constant
Bit rate                                 : 128 kb/s
Channel(s)                               : 2 channels
Channel positions                        : Front: L R
Sampling rate                            : 44.1 kHz
Frame rate                               : 43.066 FPS (1024 spf)
Compression mode                         : Lossy
Stream size                              : 151 MiB (8%)
Default                                  : Yes
Alternate group                          : 1


               
Category:Movies > Bollywood
Lang:Hindi
Total Size:1.88 GB
Info Hash:37e58c5c8e3fa83550056bc1e97c76ae650ba3da
Added By:Unknown
Date Added:17-04-2017 14:29:10
Downloads:362

Ratings:Not Yet Rated (Log in to rate it)


Tracker:
udp://tracker.coppersurfer.tk:6969/announce


File List: 


Comments

<< Previous      Next >>
1 - 2

[Report] Posted: 25-12-2017 at 12:55:47
deepudas



seed request plz.

[Report] Posted: 18-03-2018 at 16:27:55
honefuss



seed plz.... stuck at 76%

1 - 2
<< Previous      Next >>


Top
Copyright 2018 DownloadHD -|- Page Generated In 0.902762 secs.
-|- RSS Feed -|- Feed Info