Login
Username:
Password:
[Signup]
[Recover Account]


Browse Torrents

Poll


You must be logged in to view polls



Latest Torrents
Grown-ish.S02E09.7...
- [Size: 517.32 MB]

Gordon.Ramsays.24....
- [Size: 1.04 GB]

Grown-ish.S02E09.W...
- [Size: 169.74 MB]

Burden.of.Truth.S0...
- [Size: 858.03 MB]

Gordon.Ramsays.24....
- [Size: 347.93 MB]


Torrent Details For "Speech.and.Debate.2017.720p.WEBRip.x264-STRiFE [HDSector]"

Speech.and.Debate.2017.720p.WEBRip.x264-STRiFE [HDSector]

Download this torrent | Magnet Download
Health:
Seeds: 0
Leechers: 1
Completed:
Last Checked: 09-02-2019 14:30:21
External Torrent
Update Stats



Images Host

Poster


iMDB
Imdb Picture Title: Speech & Debate
Year: 2017
Runtime: 105 minutes
Votes: 190
Rating: 6.1/10
Language: English
Country: USA
All Genres: Comedy, Drama
Plot Outline: Frustrated by the hypocrisy they see in their parents, teachers, and the entire school board, an unlikely trio set out to find a common truth and make their voices heard as they revive a defunct school club and take on the world.
Director: Dan Harris
Writing By: Stephen Karam,Stephen Karam,
Produced By: Tom Rice,
Music: Deborah Lurie
Plot:

Frustrated by the hypocrisy they see in their parents, teachers, and the entire school board, an unlikely trio set out to find a common truth and make their voices heard as they revive a defunct school club and take on the world.


Cast:
Liam James as Solomon
Sarah Steele as Diwata
Austin P. McKenzie as Howie
Roger Bart as Principal Bellingham
Janeane Garofalo as Marie
Wendi McLendon-Covey as Joan
Kal Penn as James
Kimberly Williams-Paisley as Susan
Skylar Astin as Walter Healy
Edgar Arreola as Arnett


Watch-Free-HD     Download

Details
Name:Speech.and.Debate.2017.720p.WEBRip.x264-STRiFE [HDSector]
Description:
Video
ID                                       : 1
Format                                   : AVC
Format/Info                              : Advanced Video Codec
Format profile                           : [email protected]
Format settings, CABAC                   : Yes
Format settings, ReFrames                : 5 frames
Codec ID                                 : V_MPEG4/ISO/AVC
Duration                                 : 1h 35mn
Bit rate                                 : 3 083 Kbps
Width                                    : 1 280 pixels
Height                                   : 536 pixels
Display aspect ratio                     : 2.40:1
Frame rate mode                          : Constant
Frame rate                               : 23.976 (24000/1001) fps

Audio
ID                                       : 2
Format                                   : AC-3
Format/Info                              : Audio Coding 3
Mode extension                           : CM (complete main)
Format settings, Endianness              : Big
Codec ID                                 : A_AC3
Duration                                 : 1h 35mn
Bit rate mode                            : Constant
Bit rate                                 : 384 Kbps
Channel(s)                               : 6 channels
Channel positions                        : Front: L C R, Side: L R, LFE
Sampling rate                            : 48.0 KHz
Frame rate                               : 31.250 fps (1536 spf)
Compression mode                         : Lossy
Stream size                              : 263 MiB (11%)
Language                                 : English
Default                                  : Yes
Forced                                   : No

Text #1
ID                                       : 3
Format                                   : UTF-8
Codec ID                                 : S_TEXT/UTF8
Codec ID/Info                            : UTF-8 Plain Text
Duration                                 : 1h 35mn
Bit rate                                 : 84 bps
Count of elements                        : 1740
Stream size                              : 58.8 KiB (0%)
Language                                 : English
Default                                  : No
Forced                                   : No

Text #2
ID                                       : 4
Format                                   : UTF-8
Codec ID                                 : S_TEXT/UTF8
Codec ID/Info                            : UTF-8 Plain Text
Duration                                 : 1h 35mn
Bit rate                                 : 83 bps
Count of elements                        : 1641
Stream size                              : 58.3 KiB (0%)
Language                                 : French
Default                                  : No
Forced                                   : No

Text #3
ID                                       : 5
Format                                   : UTF-8
Codec ID                                 : S_TEXT/UTF8
Codec ID/Info                            : UTF-8 Plain Text
Duration                                 : 1h 35mn
Bit rate                                 : 84 bps
Count of elements                        : 1608
Stream size                              : 59.1 KiB (0%)
Language                                 : German
Default                                  : No
Forced                                   : No

Text #4
ID                                       : 6
Format                                   : UTF-8
Codec ID                                 : S_TEXT/UTF8
Codec ID/Info                            : UTF-8 Plain Text
Duration                                 : 1h 35mn
Bit rate                                 : 76 bps
Count of elements                        : 1539
Stream size                              : 53.5 KiB (0%)
Language                                 : Italian
Default                                  : No
Forced                                   : No

Text #5
ID                                       : 7
Format                                   : UTF-8
Codec ID                                 : S_TEXT/UTF8
Codec ID/Info                            : UTF-8 Plain Text
Duration                                 : 1h 35mn
Bit rate                                 : 81 bps
Count of elements                        : 1634
Stream size                              : 57.0 KiB (0%)
Language                                 : Portuguese
Default                                  : No
Forced                                   : No


Category:Movies > HDRips
Lang:English  English
Total Size:2.32 GB
Info Hash:5902555e10a177e869b02215819bce682b6f5b96
Added By:SULTAN
Date Added:06-07-2017 14:56:52
Downloads:133

Ratings:Not Yet Rated (Log in to rate it)


Tracker:
udp://tracker.trackerfix.com:81/announce


File List: 


Comments

No comments still posted

Top
Copyright 2018 DownloadHD -|- Page Generated In 0.553982 secs.
-|- RSS Feed -|- Feed Info