Login
Username:
Password:
[Signup]
[Recover Account]


Browse Torrents

Poll


You must be logged in to view polls



Latest Torrents
K.G.F Chapter 1 (2...
- [Size: 929.82 MB]

Kala Shah Kala (20...
- [Size: 1.02 GB]

Brooklyn.Nine-Nine...
- [Size: 1.56 GB]

Million.Dollar.Lis...
- [Size: 360.56 MB]

Brooklyn.Nine-Nine...
- [Size: 849.54 MB]


Torrent Details For "How to Train Your Dragon 3 2018 NEW 720p HDCAM.LLG"

How to Train Your Dragon 3 2018 NEW 720p HDCAM.LLG

Download this torrent | Magnet Download
Health:
Seeds: 6
Leechers: 43
Completed: 10 
Last Checked: 12-02-2019 06:04:54
External Torrent
Update Stats



Images Host

Poster
No poster


iMDB
Title: How to Train Your Dragon: The Hidden World
Year: 2019
Runtime: 104 minutes
Votes: 1620
Rating: 8.3/10
Language: English
Tagline: The friendship of a lifetime
Director: Dean DeBlois
Writing By: Dean DeBlois,Cressida Cowell,
Produced By: Bonnie Arnold,Michael A. Connolly,Doug Davison,Dean DeBlois,Roy Lee,Brad Lewis,Chris Sanders,Kate Spencer,
Music: John Powell
Cast:
Cate Blanchett as Valka
Gerard Butler as Stoick
Jonah Hill as Snotlout Jorgenson
Kit Harington as Eret
Kristen Wiig as Ruffnut Thorston
Jay Baruchel as Hiccup
Christopher Mintz-Plasse as Fishlegs
America Ferrera as Astrid
Ólafur Darri Ólafsson as Ragnar the Rock
F. Murray Abraham as Grimmel
Trailers:
Official Trailer #2
Official Teaser Trailer


Watch-Free-HD     Download

Details
Name:How to Train Your Dragon 3 2018 NEW 720p HDCAM.LLG
Description:

Quote:



******************************Thumbnail:**********************

 

******************************Screenshots:********************

 Screenshot 1

 Screenshot 2

 Screenshot 3

 Screenshot 4

 Screenshot 5

 Screenshot 6

 Screenshot 7

 Screenshot 8

 Screenshot 9

 Screenshot 0


******************************************************

How to Train Your Dragon 3 2018 NEW 720p HDCAM.LLG.mp4
Format                                   : MPEG-4
Format profile                           : Base Media
Codec ID                                 : isom (isom/iso2/avc1/mp41)
File size                                : 1.78 GiB
Duration                                 : 1 h 35 min
Overall bit rate mode                    : Variable
Overall bit rate                         : 2 680 kb/s


Video
ID                                       : 1
Format                                   : AVC
Format/Info                              : Advanced Video Codec
Format profile                           : [email protected]
Format settings                          : CABAC / 1 Ref Frames
Format settings, CABAC                   : Yes
Format settings, RefFrames               : 1 frame
Codec ID                                 : avc1
Codec ID/Info                            : Advanced Video Coding
Duration                                 : 1 h 35 min
Bit rate mode                            : Variable
Bit rate                                 : 2 485 kb/s
Maximum bit rate                         : 7 500 kb/s
Width                                    : 1 280 pixels
Height                                   : 536 pixels
Display aspect ratio                     : 2.40:1
Frame rate mode                          : Constant
Frame rate                               : 29.970 (29970/1000) FPS
Original frame rate                      : 29.970 (30000/1001) FPS
Color space                              : YUV
Chroma subsampling                       : 4:2:0
Bit depth                                : 8 bits
Scan type                                : Progressive
Bits/(Pixel*Frame)                       : 0.121
Stream size                              : 1.65 GiB (93%)

Audio
ID                                       : 2
Format                                   : AC-3
Format/Info                              : Audio Coding 3
Commercial name                          : Dolby Digital
Codec ID                                 : ac-3
Duration                                 : 1 h 35 min
Bit rate mode                            : Constant
Bit rate                                 : 192 kb/s
Channel(s)                               : 2 channels
Channel layout                           : L R
Sampling rate                            : 48.0 kHz
Frame rate                               : 31.250 FPS (1536 SPF)
Bit depth                                : 16 bits
Compression mode                         : Lossy
Stream size                              : 131 MiB (7%)
Service kind                             : Complete Main
Default                                  : Yes
Alternate group                          : 1



********************************************************


Category:Movies > Pre-Releases
Lang:English  English
Total Size:1.84 GB
Info Hash:22e36fd9a1b90b568c6f8c6a0cbc591401c4f65d
Added By:LifeLongg
Date Added:12-02-2019 04:17:33
Downloads:33

Ratings:Not Yet Rated (Log in to rate it)


Tracker:
udp://tracker.openbittorrent.com:80/announce


File List: 


Comments

No comments still posted

Top
Copyright 2018 DownloadHD -|- Page Generated In 1.076073 secs.
-|- RSS Feed -|- Feed Info