Login
Username:
Password:
[Signup]
[Recover Account]


Browse Torrents

Poll


You must be logged in to view polls



Latest Torrents
Windy.City.Rehab.S...
- [Size: 354.87 MB]

Bobs.Burgers.S09E1...
- [Size: 347.84 MB]

Spider-Man.Into th...
- [Size: 2.26 GB]

The.Simpsons.S30E1...
- [Size: 544.03 MB]

The.Simpsons.S30E1...
- [Size: 301.38 MB]


Torrent Details For "The.Horse.Dancer.2017.1080p.WEBRip.x264-STRiFE [HDSector]"

The.Horse.Dancer.2017.1080p.WEBRip.x264-STRiFE [HDSector]

Download this torrent | Magnet Download
Health:
Seeds: 0
Leechers: 2
Completed:
Last Checked: 08-02-2019 03:27:55
External Torrent
Update Stats



Images Host

Poster


iMDB
Imdb Picture Title: The Horse Dancer
Year: 2017
Runtime: 114 minutes
Votes: 47
Rating: 6.1/10
Language: English
Country: USA
All Genres: Family
Plot Outline: When one of America's most promising young gymnasts, Samantha Wick, is cut from the Olympic team, she decides to follow her dreams of horseback riding by joining a girls horse camp. With ...
Director: Joel Paul Reisig
Writing By: Mike Davidson,
Produced By: Eileen Hayes,Joel Paul Reisig,Kristen Ryda,
Plot:

When one of America's most promising young gymnasts, Samantha Wick, is cut from the Olympic team, she decides to follow her dreams of horseback riding by joining a girls horse camp. With financial troubles threatening to shut the camp down, Samantha uses her gymnastic prowess to start a horse-dancing team to raise money and save the camp!


Cast:
Richard Karn as Jerry
Jason London as Sheriff Dave
Sophie Bolen as Samantha Wick
Kristen Ryda as Stacy Vanderbelt
Rachel Sowers as Lisa Gold
Kristin Mellian as Jessica Lake
Carl Harry Carlson as Mr. C
Alisha Atallah as Miss Alisha
Melissa Bayer as Kim
Rhiam Bichri as Zoe


Watch-Free-HD     Download

Details
Name:The.Horse.Dancer.2017.1080p.WEBRip.x264-STRiFE [HDSector]
Description:
Video
ID                                       : 1
Format                                   : AVC
Format/Info                              : Advanced Video Codec
Format profile                           : [email protected]
Format settings, CABAC                   : Yes
Format settings, ReFrames                : 4 frames
Codec ID                                 : V_MPEG4/ISO/AVC
Duration                                 : 1h 54mn
Bit rate                                 : 8 290 Kbps
Width                                    : 1 920 pixels
Height                                   : 1 080 pixels
Display aspect ratio                     : 16:9
Frame rate mode                          : Constant
Frame rate                               : 23.976 (24000/1001) fps

Audio
ID                                       : 2
Format                                   : AC-3
Format/Info                              : Audio Coding 3
Mode extension                           : CM (complete main)
Format settings, Endianness              : Big
Codec ID                                 : A_AC3
Duration                                 : 1h 54mn
Bit rate mode                            : Constant
Bit rate                                 : 384 Kbps
Channel(s)                               : 6 channels
Channel positions                        : Front: L C R, Side: L R, LFE
Sampling rate                            : 48.0 KHz
Frame rate                               : 31.250 fps (1536 spf)
Compression mode                         : Lossy
Stream size                              : 313 MiB (4%)
Language                                 : English
Default                                  : Yes
Forced                                   : No

Text
ID                                       : 3
Format                                   : UTF-8
Codec ID                                 : S_TEXT/UTF8
Codec ID/Info                            : UTF-8 Plain Text
Duration                                 : 1h 54mn
Bit rate                                 : 59 bps
Count of elements                        : 2235
Stream size                              : 50.1 KiB (0%)
Language                                 : English
Default                                  : No
Forced                                   : No


Category:Movies > HDRips
Lang:English  English
Total Size:6.91 GB
Info Hash:c8fd3e3068fdfd0ac02d377f1c67ac2ae184009f
Added By:SULTAN
Date Added:23-07-2017 11:56:59
Downloads:121

Ratings:Not Yet Rated (Log in to rate it)


Tracker:
http://tracker.trackerfix.com:80/announce


File List: 


Comments

No comments still posted

Top
Copyright 2018 DownloadHD -|- Page Generated In 0.625635 secs.
-|- RSS Feed -|- Feed Info